Results 1 to 3 of 3

Thread: Philips 50PFL4909/F8 Profile

  1. #1
    Join Date
    Apr 2016
    Posts
    2

    Default Philips 50PFL4909/F8 Profile

    Is there a profile that works with Philips 50PFL4909/F8 Television? Anyone have any experience with this model?

    Thanks

  2. #2
    Join Date
    Apr 2016
    Posts
    2

    Default

    I found a file that plays. Here is the ffmpeg file info if that helps any.
    Thanks



    ffmpeg version N-66094-gbb8b752 Copyright (c) 2000-2014 the FFmpeg developers
    built on Sep 4 2014 16:23:51 with gcc 4.8.2 (GCC)
    configuration: --enable-memalign-hack --arch=x86_64 --target-os=mingw32 --cross-prefix=x86_64-w64-mingw32- --enable-static --disable-shared --enable-zlib --disable-postproc --prefix=/home/peter/ffmpeg/build/gpl64 --enable-libmp3lame --enable-libx264 --enable-gpl --extra-libs='-lx264 -lpthread' --enable-runtime-cpudetect --extra-cflags=-I/home/peter/cc32/include --extra-ldflags=-L/home/peter/cc64/lib --pkg-config=pkg-config --disable-w32threads --enable-libvpx --enable-libvorbis
    libavutil 54. 7.100 / 54. 7.100
    libavcodec 56. 1.100 / 56. 1.100
    libavformat 56. 4.100 / 56. 4.100
    libavdevice 56. 0.100 / 56. 0.100
    libavfilter 5. 0.103 / 5. 0.103
    libswscale 3. 0.100 / 3. 0.100
    libswresample 1. 1.100 / 1. 1.100
    Input #0, mov,mp4,m4a,3gp,3g2,mj2, from 'C:\Users\name\Videos\DJ Snake, Lil Jon - Turn Down for What (1080p).mp4':
    Metadata:
    major_brand : isom
    minor_version : 512
    compatible_brands: isomiso2avc1mp41
    encoder : Lavf55.49.100
    Duration: 00:03:36.11, start: 0.000000, bitrate: 2430 kb/s
    Stream #0:0(und): Video: h264 (High) (avc1 / 0x31637661), yuv420p(tv, bt709), 1920x1080 [SAR 1:1 DAR 16:9], 2299 kb/s, 23.98 fps, 23.98 tbr, 90k tbn, 47.95 tbc (default)
    Metadata:
    handler_name : VideoHandler
    Stream #0:1(und): Audio: aac (mp4a / 0x6134706D), 44100 Hz, stereo, fltp, 125 kb/s (default)
    Metadata:
    handler_name : SoundHandler
    At least one output file must be specified

    <MEZZMO>: Child process ended with code: 109, ExitCode=1


    ---> DB Level Info: 40, 100
    ---> Frame rate: 23.98
    ---> Aspect ratio: 16:9 PAR=1:1
    ---> Duration: 00:03:36

  3. #3
    Join Date
    Nov 2007
    Location
    Melbourne, Australia
    Posts
    11,612

    Default

    First step is to try any of the Philips TV device profiles that listed in the Media Devices dialog when you edit your device. Also, make sure you have transcoding turned on (see Transcoding tab on the Device Settings dialog for your device). If no success, then email us at support [at] conceiva [dot] com and we can help you get up and running.

    Mezzmo Android: Install it on your tablet, smartphone, Android TV or Amazon Fire to browse and stream files from your Mezzmo library to all your devices. Full details at http://www.conceiva.com/products/mez...mo_android.asp
    Mezzmo for Kodi Add-on: Install it into Kodi to stream files from your Mezzmo library directly in Kodi. Full details at http://www.mezzmo.com/wiki/doku.php?...odi_user_guide
    Mezzmo for Roku App: Install it onto your Roku to stream files from your Mezzmo library. Full details at http://www.mezzmo.com/wiki/doku.php?...oku_user_guide
    Wiki: User Guides & Reference Manual at http://www.mezzmo.com/wiki
    Facebook: http://www.facebook.com/Mezzmo.DLNA.Server
    Twitter: https://twitter.com/conceiva_mezzmo
    Web: http://www.mezzmo.com

Similar Threads

  1. Profile for Philips TV 37PFL6007 K12
    By HenningMann in forum Mezzmo Questions and Support
    Replies: 4
    Last Post: 10-31-2013, 06:12 AM
  2. Need profile for Philips PFL3507/h
    By luulez in forum Mezzmo Questions and Support
    Replies: 1
    Last Post: 12-10-2012, 09:41 AM
  3. Philips BDP 9600 Profile / Aspectratio Problems
    By Romsky in forum Mezzmo Questions and Support
    Replies: 3
    Last Post: 07-17-2012, 09:47 AM
  4. Philips BDP5200/98 Device Profile
    By guenni in forum Mezzmo Questions and Support
    Replies: 1
    Last Post: 10-24-2011, 08:45 AM
  5. Philips 37PFL8605 (8600 serie ?) profile
    By FillR in forum Mezzmo Questions and Support
    Replies: 1
    Last Post: 08-27-2011, 12:49 PM

Tags for this Thread

Bookmarks

Posting Permissions

  • You may not post new threads
  • You may not post replies
  • You may not post attachments
  • You may not edit your posts
  •