Page 4 of 4 FirstFirst ... 234
Results 31 to 39 of 39

Thread: Transcode issue

  1. #31
    Join Date
    Aug 2015
    Posts
    35

    Default

    Quote Originally Posted by Peter View Post
    The next step would be to compare the ffmpeg information of the transcoded files, can you please go to the properties of a new video in Mezzmo and on the transcoding tab select the transcoded file and click on 'Get FFmpeg Information...' then copy and paste this into a new post here and also do this for an old video so we can compare the transcoded files.
    New video

    ffmpeg version N-78742-gf477849 Copyright (c) 2000-2016 the FFmpeg developers
    built with gcc 4.9.2 (GCC)
    configuration: --enable-memalign-hack --arch=x86_64 --target-os=mingw32 --cross-prefix=x86_64-w64-mingw32- --enable-static --disable-shared --enable-zlib --disable-postproc --prefix=/home/peter/ffmpeg/build/gpl64 --enable-libmp3lame --enable-libx264 --enable-gpl --extra-libs='-lx264 -lpthread -lstdc++' --enable-runtime-cpudetect --extra-cflags=-I/home/peter/cc32/include --extra-ldflags=-L/home/peter/cc64/lib --pkg-config=pkg-config --pkg-config-flags=--static --disable-w32threads --enable-libvpx --enable-libvorbis --enable-libtheora --enable-libx265 --enable-libmfx --enable-gnutls --extra-libs='-lz -lnettle -lhogweed -lgmp -lidn -lws2_32 -lcrypt32'
    libavutil 55. 19.100 / 55. 19.100
    libavcodec 57. 25.101 / 57. 25.101
    libavformat 57. 26.100 / 57. 26.100
    libavdevice 57. 0.101 / 57. 0.101
    libavfilter 6. 36.100 / 6. 36.100
    libswscale 4. 0.100 / 4. 0.100
    libswresample 2. 0.101 / 2. 0.101
    Input #0, mov,mp4,m4a,3gp,3g2,mj2, from 'G:\iphone movies\vacation\vacation (38).MOV':
    Metadata:
    major_brand : qt
    minor_version : 0
    compatible_brands: qt
    creation_time : 2017-06-15 14:48:53
    com.apple.quicktime.location.ISO6709: +24.7317-075.9705-007.461/
    com.apple.quicktime.make: Apple
    com.apple.quicktime.model: iPhone 6s
    com.apple.quicktime.software: 10.3.2
    com.apple.quicktime.creationdate: 2017-06-15T10:48:53-0400
    Duration: 00:00:33.49, start: 0.000000, bitrate: 15383 kb/s
    Stream #0:0(und): Video: h264 (High) (avc1 / 0x31637661), yuv420p(tv, bt709), 1920x1080, 15281 kb/s, 29.98 fps, 29.97 tbr, 600 tbn, 1200 tbc (default)
    Metadata:
    rotate : 90
    creation_time : 2017-06-15 14:48:53
    handler_name : Core Media Data Handler
    encoder : H.264
    Side data:
    displaymatrix: rotation of -90.00 degrees
    Stream #0:1(und): Audio: aac (LC) (mp4a / 0x6134706D), 44100 Hz, mono, fltp, 83 kb/s (default)
    Metadata:
    creation_time : 2017-06-15 14:48:53
    handler_name : Core Media Data Handler
    Stream #0:2(und): Data: none (mebx / 0x7862656D), 9 kb/s (default)
    Metadata:
    creation_time : 2017-06-15 14:48:53
    handler_name : Core Media Data Handler
    Stream #0:3(und): Data: none (mebx / 0x7862656D), 0 kb/s (default)
    Metadata:
    creation_time : 2017-06-15 14:48:53
    handler_name : Core Media Data Handler
    At least one output file must be specified

    <MEZZMO>: Child process ended with code: 109, ExitCode=1


    ---> DB Level Info: 40, 100
    ---> Frame rate: 29.98
    ---> Aspect ratio:
    ---> Duration: 00:00:33


    Old video

    ffmpeg version N-78742-gf477849 Copyright (c) 2000-2016 the FFmpeg developers
    built with gcc 4.9.2 (GCC)
    configuration: --enable-memalign-hack --arch=x86_64 --target-os=mingw32 --cross-prefix=x86_64-w64-mingw32- --enable-static --disable-shared --enable-zlib --disable-postproc --prefix=/home/peter/ffmpeg/build/gpl64 --enable-libmp3lame --enable-libx264 --enable-gpl --extra-libs='-lx264 -lpthread -lstdc++' --enable-runtime-cpudetect --extra-cflags=-I/home/peter/cc32/include --extra-ldflags=-L/home/peter/cc64/lib --pkg-config=pkg-config --pkg-config-flags=--static --disable-w32threads --enable-libvpx --enable-libvorbis --enable-libtheora --enable-libx265 --enable-libmfx --enable-gnutls --extra-libs='-lz -lnettle -lhogweed -lgmp -lidn -lws2_32 -lcrypt32'
    libavutil 55. 19.100 / 55. 19.100
    libavcodec 57. 25.101 / 57. 25.101
    libavformat 57. 26.100 / 57. 26.100
    libavdevice 57. 0.101 / 57. 0.101
    libavfilter 6. 36.100 / 6. 36.100
    libswscale 4. 0.100 / 4. 0.100
    libswresample 2. 0.101 / 2. 0.101
    Input #0, mov,mp4,m4a,3gp,3g2,mj2, from 'G:\iphone movies\cheer\cheer (3).MOV':
    Metadata:
    major_brand : qt
    minor_version : 0
    compatible_brands: qt
    creation_time : 2011-10-13 22:44:41
    Duration: 00:01:01.85, start: 0.000000, bitrate: 10715 kb/s
    Stream #0:0(und): Video: h264 (Baseline) (avc1 / 0x31637661), yuv420p(tv, bt709), 1280x720, 10640 kb/s, 29.97 fps, 29.97 tbr, 600 tbn, 1200 tbc (default)
    Metadata:
    rotate : 90
    creation_time : 2011-10-13 22:44:41
    handler_name : Core Media Data Handler
    encoder : H.264
    Side data:
    displaymatrix: rotation of -90.00 degrees
    Stream #0:1(und): Audio: aac (LC) (mp4a / 0x6134706D), 44100 Hz, mono, fltp, 63 kb/s (default)
    Metadata:
    creation_time : 2011-10-13 22:44:41
    handler_name : Core Media Data Handler
    At least one output file must be specified

    <MEZZMO>: Child process ended with code: 109, ExitCode=1


    ---> DB Level Info: 31, 66
    ---> Frame rate: 29.97
    ---> Aspect ratio:
    ---> Duration: 00:01:01

  2. #32
    Join Date
    Sep 2009
    Posts
    1,696

    Default

    This is the ffmpeg information from the original file, on the Transcoding tab of the properties there is a button to get ffmpeg information from the transcoded file and this should show different information. Can you please go to the Transcoding tab of the file's properties and then select the transcoded file and click the 'Get FFmpeg Information...' button to get the information from the transcoded file?

    Mezzmo Android: Install it on your tablet, smartphone, Android TV or Amazon Fire to browse and stream files from your Mezzmo library to all your devices. Full details at http://www.conceiva.com/products/mez...mo_android.asp
    Mezzmo for Kodi Add-on: Install it into Kodi to stream files from your Mezzmo library directly in Kodi. Full details at http://www.mezzmo.com/wiki/doku.php?...odi_user_guide
    Mezzmo for Roku App: Install it onto your Roku to stream files from your Mezzmo library. Full details at http://www.mezzmo.com/wiki/doku.php?...oku_user_guide
    Wiki: User Guides & Reference Manual at http://www.mezzmo.com/wiki
    Facebook: http://www.facebook.com/Mezzmo.DLNA.Server
    Twitter: https://twitter.com/conceiva_mezzmo
    Web: http://www.mezzmo.com

  3. #33
    Join Date
    Aug 2015
    Posts
    35

    Default

    Quote Originally Posted by Peter View Post
    This is the ffmpeg information from the original file, on the Transcoding tab of the properties there is a button to get ffmpeg information from the transcoded file and this should show different information. Can you please go to the Transcoding tab of the file's properties and then select the transcoded file and click the 'Get FFmpeg Information...' button to get the information from the transcoded file?
    At the bottom of the movie selection there is a pic of a pen in bottom right hand corner . I right clicked on that and then went to the bottom and selected "get FFmpeg information " from there. So you want me to left click on the pic of the pen, go to transcode tab and then what. There are several named devices I use with MP4 listed for each. Do I right click on the one for the particular device?

    ......Okay I found it.....

    New video

    ffmpeg version N-78742-gf477849 Copyright (c) 2000-2016 the FFmpeg developers
    built with gcc 4.9.2 (GCC)
    configuration: --enable-memalign-hack --arch=x86_64 --target-os=mingw32 --cross-prefix=x86_64-w64-mingw32- --enable-static --disable-shared --enable-zlib --disable-postproc --prefix=/home/peter/ffmpeg/build/gpl64 --enable-libmp3lame --enable-libx264 --enable-gpl --extra-libs='-lx264 -lpthread -lstdc++' --enable-runtime-cpudetect --extra-cflags=-I/home/peter/cc32/include --extra-ldflags=-L/home/peter/cc64/lib --pkg-config=pkg-config --pkg-config-flags=--static --disable-w32threads --enable-libvpx --enable-libvorbis --enable-libtheora --enable-libx265 --enable-libmfx --enable-gnutls --extra-libs='-lz -lnettle -lhogweed -lgmp -lidn -lws2_32 -lcrypt32'
    libavutil 55. 19.100 / 55. 19.100
    libavcodec 57. 25.101 / 57. 25.101
    libavformat 57. 26.100 / 57. 26.100
    libavdevice 57. 0.101 / 57. 0.101
    libavfilter 6. 36.100 / 6. 36.100
    libswscale 4. 0.100 / 4. 0.100
    libswresample 2. 0.101 / 2. 0.101
    Input #0, mov,mp4,m4a,3gp,3g2,mj2, from 'G:\Mezzmo transcoded files\13258AE0-93DE-42b2-9083-49AC651BFEB5\Video\6492-h264aac-libx264-aac-sn.mzt':
    Metadata:
    major_brand : isom
    minor_version : 512
    compatible_brands: isomiso2avc1mp41
    encoder : Lavf57.26.100
    Duration: 00:00:33.58, start: 0.023220, bitrate: 2077 kb/s
    Stream #0:0(und): Video: h264 (High) (avc1 / 0x31637661), yuv420p, 1280x720, 1946 kb/s, 30 fps, 30 tbr, 15360 tbn, 60 tbc (default)
    Metadata:
    handler_name : VideoHandler
    Stream #0:1(und): Audio: aac (LC) (mp4a / 0x6134706D), 44100 Hz, stereo, fltp, 128 kb/s (default)
    Metadata:
    handler_name : SoundHandler
    At least one output file must be specified

    <MEZZMO>: Child process ended with code: 109, ExitCode=1


    Old video

    ffmpeg version N-78742-gf477849 Copyright (c) 2000-2016 the FFmpeg developers
    built with gcc 4.9.2 (GCC)
    configuration: --enable-memalign-hack --arch=x86_64 --target-os=mingw32 --cross-prefix=x86_64-w64-mingw32- --enable-static --disable-shared --enable-zlib --disable-postproc --prefix=/home/peter/ffmpeg/build/gpl64 --enable-libmp3lame --enable-libx264 --enable-gpl --extra-libs='-lx264 -lpthread -lstdc++' --enable-runtime-cpudetect --extra-cflags=-I/home/peter/cc32/include --extra-ldflags=-L/home/peter/cc64/lib --pkg-config=pkg-config --pkg-config-flags=--static --disable-w32threads --enable-libvpx --enable-libvorbis --enable-libtheora --enable-libx265 --enable-libmfx --enable-gnutls --extra-libs='-lz -lnettle -lhogweed -lgmp -lidn -lws2_32 -lcrypt32'
    libavutil 55. 19.100 / 55. 19.100
    libavcodec 57. 25.101 / 57. 25.101
    libavformat 57. 26.100 / 57. 26.100
    libavdevice 57. 0.101 / 57. 0.101
    libavfilter 6. 36.100 / 6. 36.100
    libswscale 4. 0.100 / 4. 0.100
    libswresample 2. 0.101 / 2. 0.101
    Input #0, mov,mp4,m4a,3gp,3g2,mj2, from 'G:\Mezzmo transcoded files\13258AE0-93DE-42b2-9083-49AC651BFEB5\Video\5475-h264aac-libx264-aac-sn.mzt':
    Metadata:
    major_brand : isom
    minor_version : 512
    compatible_brands: isomiso2avc1mp41
    encoder : Lavf57.26.100
    Duration: 00:01:01.91, start: 0.023220, bitrate: 1793 kb/s
    Stream #0:0(und): Video: h264 (High) (avc1 / 0x31637661), yuv420p, 720x1280, 1657 kb/s, 30 fps, 30 tbr, 15360 tbn, 60 tbc (default)
    Metadata:
    handler_name : VideoHandler
    Stream #0:1(und): Audio: aac (LC) (mp4a / 0x6134706D), 44100 Hz, stereo, fltp, 128 kb/s (default)
    Metadata:
    handler_name : SoundHandler
    At least one output file must be specified

    <MEZZMO>: Child process ended with code: 109, ExitCode=1
    Last edited by Christian; 07-05-2017 at 07:43 PM. Reason: New information.

  4. #34
    Join Date
    Sep 2009
    Posts
    1,696

    Default

    interesting, you can see the new video is 1280x720 whereas the old video is 720x1280. Possibly you could try swapping the max resolution values in the Device Settings then transcode the new video again to see if this makes a difference to the aspect ratio.

    Mezzmo Android: Install it on your tablet, smartphone, Android TV or Amazon Fire to browse and stream files from your Mezzmo library to all your devices. Full details at http://www.conceiva.com/products/mez...mo_android.asp
    Mezzmo for Kodi Add-on: Install it into Kodi to stream files from your Mezzmo library directly in Kodi. Full details at http://www.mezzmo.com/wiki/doku.php?...odi_user_guide
    Mezzmo for Roku App: Install it onto your Roku to stream files from your Mezzmo library. Full details at http://www.mezzmo.com/wiki/doku.php?...oku_user_guide
    Wiki: User Guides & Reference Manual at http://www.mezzmo.com/wiki
    Facebook: http://www.facebook.com/Mezzmo.DLNA.Server
    Twitter: https://twitter.com/conceiva_mezzmo
    Web: http://www.mezzmo.com

  5. #35
    Join Date
    Aug 2015
    Posts
    35

    Default

    Quote Originally Posted by Peter View Post
    interesting, you can see the new video is 1280x720 whereas the old video is 720x1280. Possibly you could try swapping the max resolution values in the Device Settings then transcode the new video again to see if this makes a difference to the aspect ratio.
    Attempted swapping the max resolution as you suggested and did not make a difference with new video.

  6. #36
    Join Date
    Sep 2009
    Posts
    1,696

    Default

    Can you please check the ffmpeg information of the transcoded new video to see if it shows 720x1280 as the resolution, you may need to delete the existing transcoded file then pre-transcode it again to get the changes.

    Mezzmo Android: Install it on your tablet, smartphone, Android TV or Amazon Fire to browse and stream files from your Mezzmo library to all your devices. Full details at http://www.conceiva.com/products/mez...mo_android.asp
    Mezzmo for Kodi Add-on: Install it into Kodi to stream files from your Mezzmo library directly in Kodi. Full details at http://www.mezzmo.com/wiki/doku.php?...odi_user_guide
    Mezzmo for Roku App: Install it onto your Roku to stream files from your Mezzmo library. Full details at http://www.mezzmo.com/wiki/doku.php?...oku_user_guide
    Wiki: User Guides & Reference Manual at http://www.mezzmo.com/wiki
    Facebook: http://www.facebook.com/Mezzmo.DLNA.Server
    Twitter: https://twitter.com/conceiva_mezzmo
    Web: http://www.mezzmo.com

  7. #37
    Join Date
    Aug 2015
    Posts
    35

    Default

    I’m reviving a problem I have had for some time. Worked with Peter on this last year but frankly became frustrated ( and busy with other things) and stopped working it.

    It involves playback of a few videos in the wrong aspect as well as as on occasion rotated usually counterclockwise by 90 degrees.
    I’m using Mezzmo as the server on a windows machine running windows X.
    I use 8player to view the videos primarily on Apple devices: iPhone, iPad, and Apple TV.
    Most of my trouble came about it would seem with time. I have had this setup for sometime but after awhile started happening. The videos that I have trouble with are mainly those taken on different iPhones. The videos that I had recorded on earlier versions of iPhones played with no issues. I notice that most of my problems exist when I recorded with my iPhone 6 ( others were 4,5,5S).

    I have tried using the “original” format since after all I am watching an Apple created video on an Apple device. This brings about stuttering and on some ( not all) the picture is rotated 90 degrees counterclockwise. The aspect ratio can at times be fat and others it will be fine. If I try to fix the aspect ratio within either the viewer (8 Player) or by transcoding within Mezzmo, it still comes out fat.
    If I try to use other various transcodes ( ie matroska or .mov.mp ,etc or mpegts) it gives a mixture of results.

    I would really like to take a video or two I’m having trouble with and see if someone can help me find a resolution.

  8. #38
    Join Date
    Sep 2009
    Posts
    1,696

    Default

    Possibly try using a different app like Infuse instead of 8 Player to see if this works better.

    Mezzmo Android: Install it on your tablet, smartphone, Android TV or Amazon Fire to browse and stream files from your Mezzmo library to all your devices. Full details at http://www.conceiva.com/products/mez...mo_android.asp
    Mezzmo for Kodi Add-on: Install it into Kodi to stream files from your Mezzmo library directly in Kodi. Full details at http://www.mezzmo.com/wiki/doku.php?...odi_user_guide
    Mezzmo for Roku App: Install it onto your Roku to stream files from your Mezzmo library. Full details at http://www.mezzmo.com/wiki/doku.php?...oku_user_guide
    Wiki: User Guides & Reference Manual at http://www.mezzmo.com/wiki
    Facebook: http://www.facebook.com/Mezzmo.DLNA.Server
    Twitter: https://twitter.com/conceiva_mezzmo
    Web: http://www.mezzmo.com

  9. #39
    Join Date
    Aug 2015
    Posts
    35

    Default

    I’ll check on that .

Similar Threads

  1. Panasonic GT30E "to transcode or not to transcode"
    By freeman in forum Mezzmo Questions and Support
    Replies: 6
    Last Post: 01-23-2015, 09:57 AM
  2. How to Setup Transcoding to NOT Transcode On-The-Fly but ONLY Transcode Manuallly?
    By stevefoobar in forum Mezzmo Questions and Support
    Replies: 6
    Last Post: 10-22-2012, 05:03 PM
  3. Transcoding: list devices and transcode state - option to pre-transcode
    By Dillster in forum Mezzmo Wish List and Feedback
    Replies: 13
    Last Post: 01-06-2012, 05:30 PM
  4. VLC used to transcode?
    By a980652 in forum Mezzmo Wish List and Feedback
    Replies: 1
    Last Post: 04-20-2011, 09:37 AM
  5. first start transcode, second start no transcode of MKV file?
    By djvdgalien in forum Mezzmo Questions and Support
    Replies: 5
    Last Post: 01-20-2011, 09:35 AM

Tags for this Thread

Bookmarks

Posting Permissions

  • You may not post new threads
  • You may not post replies
  • You may not post attachments
  • You may not edit your posts
  •