Results 1 to 2 of 2

Thread: desynced audio, playing from ISO

  1. #1
    Join Date
    Feb 2017
    Posts
    35

    Default desynced audio, playing from ISO

    I was playing a movie from a ISO, and the audio is desynced, at first I thought it was the player then phone, but it happens across different devices and movie players, also if I transcode the movie it plays in sync fine or play it locally (without mezzmo) so there is nothing wrong with the file, so what could be causing this issue?

    I want to avoid transcoding if possible.



    ffmpeg version N-78742-gf477849 Copyright (c) 2000-2016 the FFmpeg developers
    built with gcc 4.9.2 (GCC)
    configuration: --enable-memalign-hack --arch=x86_64 --target-os=mingw32 --cross-prefix=x86_64-w64-mingw32- --enable-static --disable-shared --enable-zlib --disable-postproc --prefix=/home/peter/ffmpeg/build/gpl64 --enable-libmp3lame --enable-libx264 --enable-gpl --extra-libs='-lx264 -lpthread -lstdc++' --enable-runtime-cpudetect --extra-cflags=-I/home/peter/cc32/include --extra-ldflags=-L/home/peter/cc64/lib --pkg-config=pkg-config --pkg-config-flags=--static --disable-w32threads --enable-libvpx --enable-libvorbis --enable-libtheora --enable-libx265 --enable-libmfx --enable-gnutls --extra-libs='-lz -lnettle -lhogweed -lgmp -lidn -lws2_32 -lcrypt32'
    libavutil 55. 19.100 / 55. 19.100
    libavcodec 57. 25.101 / 57. 25.101
    libavformat 57. 26.100 / 57. 26.100
    libavdevice 57. 0.101 / 57. 0.101
    libavfilter 6. 36.100 / 6. 36.100
    libswscale 4. 0.100 / 4. 0.100
    libswresample 2. 0.101 / 2. 0.101
    Input #0, mpeg, from 'pipe:':
    Duration: N/A, start: 0.581367, bitrate: N/A
    Stream #0:0[0x1bf]: Data: dvd_nav_packet
    Stream #0:1[0x1e0]: Video: mpeg2video (Main), yuv420p(tv), 720x480 [SAR 32:27 DAR 16:9], Closed Captions, max. 9800 kb/s, 30 fps, 59.94 tbr, 90k tbn, 59.94 tbc
    Stream #0:2[0x20]: Subtitle: dvd_subtitle
    Stream #0:3[0x21]: Subtitle: dvd_subtitle
    Stream #0:4[0x22]: Subtitle: dvd_subtitle
    Stream #0:5[0x23]: Subtitle: dvd_subtitle
    Stream #0:6[0x26]: Subtitle: dvd_subtitle
    Stream #0:7[0x27]: Subtitle: dvd_subtitle
    Stream #0:8[0x80]: Audio: ac3, 48000 Hz, 5.1(side), fltp, 448 kb/s
    Stream #0:9[0x83]: Audio: ac3, 48000 Hz, stereo, fltp, 192 kb/s
    At least one output file must be specified

    <MEZZMO>: Child process ended with code: 109, ExitCode=1


    ---> DB Level Info: 8, 4
    ---> Frame rate: 30.00
    ---> Aspect ratio: 16:9 PAR=32:27
    ---> Duration: 02:17:14 (multi-file total)
    ---> List: #dv;1:1;0:4405917696;8234|
    Edit: seemed to fix after a pc reboot and / or changing the max bitrate setting
    Last edited by odin; 05-15-2017 at 03:57 PM.

  2. #2
    Join Date
    Sep 2009
    Posts
    1,745

    Default

    Glad to hear the problem is resolved, thanks for letting us know.

    Mezzmo Android: Install it on your tablet, smartphone, Android TV or Amazon Fire to browse and stream files from your Mezzmo library to all your devices. Full details at http://www.conceiva.com/products/mez...mo_android.asp
    Mezzmo for Kodi Add-on: Install it into Kodi to stream files from your Mezzmo library directly in Kodi. Full details at http://www.mezzmo.com/wiki/doku.php?...odi_user_guide
    Mezzmo for Roku App: Install it onto your Roku to stream files from your Mezzmo library. Full details at http://www.mezzmo.com/wiki/doku.php?...oku_user_guide
    Wiki: User Guides & Reference Manual at http://www.mezzmo.com/wiki
    Facebook: http://www.facebook.com/Mezzmo.DLNA.Server
    Twitter: https://twitter.com/conceiva_mezzmo
    Web: http://www.mezzmo.com

Similar Threads

  1. No audio when playing video
    By Christian in forum Mezzmo Questions and Support
    Replies: 13
    Last Post: 08-24-2015, 09:46 AM
  2. DTS Audio on not playing 2013 Viera VT60
    By mjb_i in forum Mezzmo Questions and Support
    Replies: 1
    Last Post: 10-13-2014, 09:06 AM
  3. Samsung BD-C6500 not playing audio
    By Riash in forum Mezzmo Questions and Support
    Replies: 1
    Last Post: 09-19-2011, 09:04 AM
  4. Mezzmo Playing Wrong Audio Track ...
    By jeffreybc55 in forum Mezzmo Questions and Support
    Replies: 1
    Last Post: 07-06-2011, 08:22 AM
  5. mp4 with 5.1 AAC audio not playing on xbox 360
    By Koekebeest in forum Mezzmo Questions and Support
    Replies: 44
    Last Post: 02-11-2011, 08:02 AM

Tags for this Thread

Bookmarks

Posting Permissions

  • You may not post new threads
  • You may not post replies
  • You may not post attachments
  • You may not edit your posts
  •