Page 1 of 4 123 ... LastLast
Results 1 to 10 of 35

Thread: Repeating issue

  1. #1
    Join Date
    Mar 2018
    Posts
    17

    Default Repeating issue

    I am having a issue where when I am watching my video's on my Roku, during transcoding it is repeating 30 sec sections of the show that do not exist in the original format. This is getting really annoying, any ideas of what could be causing this. transcoding FPS is between 150 - 200 fps, and CPU is like 4% Memory is around 10% max.

    Thank you

  2. #2
    Join Date
    Sep 2009
    Posts
    1,603

    Default

    Hi,
    Mezzmo transcodes the file to 10 second segments for delivery to the Roku, possibly the Roku is requesting the same segments or Mezzmo is creating extra segments when transcoding. Can you please try playing a file that has already been transcoded or pre-transcoding a the file http://www.mezzmo.com/wiki/doku.php?id=pre-transcoding_files&s[]=pre&s[]=transcode to see if the repeating issue still occurs?

    Mezzmo Android: Install it on your tablet, smartphone, Android TV or Amazon Fire to browse and stream files from your Mezzmo library to all your devices. Full details at http://www.conceiva.com/products/mez...mo_android.asp
    Mezzmo for Kodi Add-on: Install it into Kodi to stream files from your Mezzmo library directly in Kodi. Full details at http://www.mezzmo.com/wiki/doku.php?...odi_user_guide
    Mezzmo for Roku App: Install it onto your Roku to stream files from your Mezzmo library. Full details at http://www.mezzmo.com/wiki/doku.php?...oku_user_guide
    Wiki: User Guides & Reference Manual at http://www.mezzmo.com/wiki
    Facebook: http://www.facebook.com/Mezzmo.DLNA.Server
    Twitter: https://twitter.com/conceiva_mezzmo
    Web: http://www.mezzmo.com

  3. #3
    Join Date
    Mar 2018
    Posts
    17

    Default

    Ok tested, Pre-transcoding works fine, however I did notice that when transcoding on the fly to a Roku device, it transcodes for a bit then says queue. Then when the 30 to 60 repeat happens, it starts transcoding again. It is as if it goes into Queue status, but forgets to transcode more, then the Roku goes HEY I need more, and it starts transcoding again but transcodes 30 to 60 seconds before it should. I had Mezzmo up while watching to see what it did, I found it strange that it Transcoded a lot, then just went to Queue but never transcoded again till the revert happened.

  4. #4
    Join Date
    Sep 2009
    Posts
    1,603

    Default

    What can happen when streaming hls is that the device will request a segment beyond what is currently being transcoded so Mezzmo will stop the current transcode and start transcoding from the offset requested. If the offset is not being correctly calculated by ffmpeg then it may start transcoding earlier than it is supposed to resulting in a repeat of a section of the video. Can you please try playing a video that had the repeat problem again to see if the problem still occurs after transcoding is completed? This will tell us whether the completed transcode has a duplicated section or if the device is requesting the same sections over again.

    Mezzmo Android: Install it on your tablet, smartphone, Android TV or Amazon Fire to browse and stream files from your Mezzmo library to all your devices. Full details at http://www.conceiva.com/products/mez...mo_android.asp
    Mezzmo for Kodi Add-on: Install it into Kodi to stream files from your Mezzmo library directly in Kodi. Full details at http://www.mezzmo.com/wiki/doku.php?...odi_user_guide
    Mezzmo for Roku App: Install it onto your Roku to stream files from your Mezzmo library. Full details at http://www.mezzmo.com/wiki/doku.php?...oku_user_guide
    Wiki: User Guides & Reference Manual at http://www.mezzmo.com/wiki
    Facebook: http://www.facebook.com/Mezzmo.DLNA.Server
    Twitter: https://twitter.com/conceiva_mezzmo
    Web: http://www.mezzmo.com

  5. #5
    Join Date
    Mar 2018
    Posts
    17

    Default

    Just watched another, it ran fine till it needed to transcode again, then it had the 60 sec repeat. It then transcoded more, and queues more, once it finishes transcoding it no longer reverses, however as long as it goes into queue and then starts transcoding again, that is where the repeat is every time. Once transcoding is 100% it never repeats again.

    I have turned on Logging now, unfortunately after I watched the last movie.. :/ But I will keep an eye on logs, and post them when it happens again.

  6. #6
    Join Date
    Mar 2018
    Posts
    17

    Default

    Also another thing I noticed, when watching the SAME movie, it will Transcode sometimes 10% before going into queue and sometimes even as far as 90% before going into queue mode. Its totally random on how much it Transcodes on the fly %

  7. #7
    Join Date
    Sep 2009
    Posts
    1,603

    Default

    We will try streaming some files to our Roku here to try and reproduce this. Can you please right-click on the file in Mezzmo and select Get FFmpeg Information... then copy and paste it into a forum post so we can test with a similar file here?
    Last edited by Peter; 03-09-2018 at 09:43 AM.

    Mezzmo Android: Install it on your tablet, smartphone, Android TV or Amazon Fire to browse and stream files from your Mezzmo library to all your devices. Full details at http://www.conceiva.com/products/mez...mo_android.asp
    Mezzmo for Kodi Add-on: Install it into Kodi to stream files from your Mezzmo library directly in Kodi. Full details at http://www.mezzmo.com/wiki/doku.php?...odi_user_guide
    Mezzmo for Roku App: Install it onto your Roku to stream files from your Mezzmo library. Full details at http://www.mezzmo.com/wiki/doku.php?...oku_user_guide
    Wiki: User Guides & Reference Manual at http://www.mezzmo.com/wiki
    Facebook: http://www.facebook.com/Mezzmo.DLNA.Server
    Twitter: https://twitter.com/conceiva_mezzmo
    Web: http://www.mezzmo.com

  8. #8
    Join Date
    Mar 2018
    Posts
    17

    Default

    Here is one..

    ffmpeg version 3.4.2 Copyright (c) 2000-2018 the FFmpeg developers
    built with gcc 7.3.0 (GCC)
    configuration: --enable-gpl --enable-version3 --enable-sdl2 --enable-bzlib --enable-fontconfig --enable-gnutls --enable-iconv --enable-libass --enable-libbluray --enable-libfreetype --enable-libmp3lame --enable-libopencore-amrnb --enable-libopencore-amrwb --enable-libopenjpeg --enable-libopus --enable-libshine --enable-libsnappy --enable-libsoxr --enable-libtheora --enable-libtwolame --enable-libvpx --enable-libwavpack --enable-libwebp --enable-libx264 --enable-libx265 --enable-libxml2 --enable-libzimg --enable-lzma --enable-zlib --enable-gmp --enable-libvidstab --enable-libvorbis --enable-libvo-amrwbenc --enable-libmysofa --enable-libspeex --enable-libxvid --enable-libmfx --enable-cuda --enable-cuvid --enable-d3d11va --enable-nvenc --enable-dxva2 --enable-avisynth
    libavutil 55. 78.100 / 55. 78.100
    libavcodec 57.107.100 / 57.107.100
    libavformat 57. 83.100 / 57. 83.100
    libavdevice 57. 10.100 / 57. 10.100
    libavfilter 6.107.100 / 6.107.100
    libswscale 4. 8.100 / 4. 8.100
    libswresample 2. 9.100 / 2. 9.100
    libpostproc 54. 7.100 / 54. 7.100
    [matroska,webm @ 00000256953b6640] Could not find codec parameters for stream 4 (Subtitle: hdmv_pgs_subtitle (pgssub)): unspecified size
    Consider increasing the value for the 'analyzeduration' and 'probesize' options
    [matroska,webm @ 00000256953b6640] Could not find codec parameters for stream 5 (Subtitle: hdmv_pgs_subtitle (pgssub)): unspecified size
    Consider increasing the value for the 'analyzeduration' and 'probesize' options
    [matroska,webm @ 00000256953b6640] Could not find codec parameters for stream 6 (Subtitle: hdmv_pgs_subtitle (pgssub)): unspecified size
    Consider increasing the value for the 'analyzeduration' and 'probesize' options
    [matroska,webm @ 00000256953b6640] Could not find codec parameters for stream 7 (Subtitle: hdmv_pgs_subtitle (pgssub)): unspecified size
    Consider increasing the value for the 'analyzeduration' and 'probesize' options
    [matroska,webm @ 00000256953b6640] Could not find codec parameters for stream 9 (Subtitle: hdmv_pgs_subtitle (pgssub)): unspecified size
    Consider increasing the value for the 'analyzeduration' and 'probesize' options
    [matroska,webm @ 00000256953b6640] Could not find codec parameters for stream 10 (Subtitle: hdmv_pgs_subtitle (pgssub)): unspecified size
    Consider increasing the value for the 'analyzeduration' and 'probesize' options
    Input #0, matroska,webm, from 'E:\Mezzmo Video\Movies\Guardians of the Galaxy\Guardians of the Galaxy Vol 2 2017.mkv':
    Metadata:
    encoder : libebml v1.3.1 + libmatroska v1.4.2
    creation_time : 2017-08-21T01:22:38.000000Z
    Duration: 02:15:46.21, start: 0.000000, bitrate: 14341 kb/s
    Stream #0:0(eng): Video: h264 (High), yuv420p(progressive), 1920x804 [SAR 1:1 DAR 160:67], 23.98 fps, 23.98 tbr, 1k tbn, 47.95 tbc (default)
    Metadata:
    title : MPEG-4 x264@High Profile L4.1, 24/1.001 fps @ 8500 kbps
    BPS : 8494050
    BPS-eng : 8494050
    DURATION : 02:15:46.180000000
    DURATION-eng : 02:15:46.180000000
    NUMBER_OF_FRAMES: 195313
    NUMBER_OF_FRAMES-eng: 195313
    NUMBER_OF_BYTES : 8649258221
    NUMBER_OF_BYTES-eng: 8649258221
    _STATISTICS_WRITING_APP: mkvmerge v8.3.0 ('Over the Horizon') 64bit
    _STATISTICS_WRITING_APP-eng: mkvmerge v8.3.0 ('Over the Horizon') 64bit
    _STATISTICS_WRITING_DATE_UTC: 2017-08-21 01:22:38
    _STATISTICS_WRITING_DATE_UTC-eng: 2017-08-21 01:22:38
    _STATISTICS_TAGS: BPS DURATION NUMBER_OF_FRAMES NUMBER_OF_BYTES
    _STATISTICS_TAGS-eng: BPS DURATION NUMBER_OF_FRAMES NUMBER_OF_BYTES
    Stream #0:1(eng): Audio: dts (DTS-HD MA), 48000 Hz, 7.1, s32p (24 bit) (default)
    Metadata:
    title : English DTS-HD Master Audio 7.1 @ 4842 kbps
    BPS : 4842219
    BPS-eng : 4842219
    DURATION : 02:15:46.187000000
    DURATION-eng : 02:15:46.187000000
    NUMBER_OF_FRAMES: 763705
    NUMBER_OF_FRAMES-eng: 763705
    NUMBER_OF_BYTES : 4930702804
    NUMBER_OF_BYTES-eng: 4930702804
    _STATISTICS_WRITING_APP: mkvmerge v8.3.0 ('Over the Horizon') 64bit
    _STATISTICS_WRITING_APP-eng: mkvmerge v8.3.0 ('Over the Horizon') 64bit
    _STATISTICS_WRITING_DATE_UTC: 2017-08-21 01:22:38
    _STATISTICS_WRITING_DATE_UTC-eng: 2017-08-21 01:22:38
    _STATISTICS_TAGS: BPS DURATION NUMBER_OF_FRAMES NUMBER_OF_BYTES
    _STATISTICS_TAGS-eng: BPS DURATION NUMBER_OF_FRAMES NUMBER_OF_BYTES
    Stream #0:2(chi): Audio: ac3, 48000 Hz, 5.1(side), fltp, 640 kb/s
    Metadata:
    title : Mandarin Dolby Digital Audio 5.1 @ 640 kbps 原盘国语
    BPS : 640000
    BPS-eng : 640000
    DURATION : 02:15:46.208000000
    DURATION-eng : 02:15:46.208000000
    NUMBER_OF_FRAMES: 254569
    NUMBER_OF_FRAMES-eng: 254569
    NUMBER_OF_BYTES : 651696640
    NUMBER_OF_BYTES-eng: 651696640
    _STATISTICS_WRITING_APP: mkvmerge v8.3.0 ('Over the Horizon') 64bit
    _STATISTICS_WRITING_APP-eng: mkvmerge v8.3.0 ('Over the Horizon') 64bit
    _STATISTICS_WRITING_DATE_UTC: 2017-08-21 01:22:38
    _STATISTICS_WRITING_DATE_UTC-eng: 2017-08-21 01:22:38
    _STATISTICS_TAGS: BPS DURATION NUMBER_OF_FRAMES NUMBER_OF_BYTES
    _STATISTICS_TAGS-eng: BPS DURATION NUMBER_OF_FRAMES NUMBER_OF_BYTES
    Stream #0:3(eng): Audio: ac3, 48000 Hz, stereo, fltp, 192 kb/s
    Metadata:
    title : English Dolby Digital Audio 2.0 @ 192 kbps Commentary
    BPS : 192000
    BPS-eng : 192000
    DURATION : 02:15:46.208000000
    DURATION-eng : 02:15:46.208000000
    NUMBER_OF_FRAMES: 254569
    NUMBER_OF_FRAMES-eng: 254569
    NUMBER_OF_BYTES : 195508992
    NUMBER_OF_BYTES-eng: 195508992
    _STATISTICS_WRITING_APP: mkvmerge v8.3.0 ('Over the Horizon') 64bit
    _STATISTICS_WRITING_APP-eng: mkvmerge v8.3.0 ('Over the Horizon') 64bit
    _STATISTICS_WRITING_DATE_UTC: 2017-08-21 01:22:38
    _STATISTICS_WRITING_DATE_UTC-eng: 2017-08-21 01:22:38
    _STATISTICS_TAGS: BPS DURATION NUMBER_OF_FRAMES NUMBER_OF_BYTES
    _STATISTICS_TAGS-eng: BPS DURATION NUMBER_OF_FRAMES NUMBER_OF_BYTES
    Stream #0:4(eng): Subtitle: hdmv_pgs_subtitle
    Metadata:
    title : Eng/SUP
    BPS : 30334
    BPS-eng : 30334
    DURATION : 02:14:26.684000000
    DURATION-eng : 02:14:26.684000000
    NUMBER_OF_FRAMES: 3156
    NUMBER_OF_FRAMES-eng: 3156
    NUMBER_OF_BYTES : 30587222
    NUMBER_OF_BYTES-eng: 30587222
    _STATISTICS_WRITING_APP: mkvmerge v8.3.0 ('Over the Horizon') 64bit
    _STATISTICS_WRITING_APP-eng: mkvmerge v8.3.0 ('Over the Horizon') 64bit
    _STATISTICS_WRITING_DATE_UTC: 2017-08-21 01:22:38
    _STATISTICS_WRITING_DATE_UTC-eng: 2017-08-21 01:22:38
    _STATISTICS_TAGS: BPS DURATION NUMBER_OF_FRAMES NUMBER_OF_BYTES
    _STATISTICS_TAGS-eng: BPS DURATION NUMBER_OF_FRAMES NUMBER_OF_BYTES
    Stream #0:5(chi): Subtitle: hdmv_pgs_subtitle (default)
    Metadata:
    title : Chs/SUP 原盘简体
    BPS : 23359
    BPS-eng : 23359
    DURATION : 02:14:47.413000000
    DURATION-eng : 02:14:47.413000000
    NUMBER_OF_FRAMES: 3208
    NUMBER_OF_FRAMES-eng: 3208
    NUMBER_OF_BYTES : 23614580
    NUMBER_OF_BYTES-eng: 23614580
    _STATISTICS_WRITING_APP: mkvmerge v8.3.0 ('Over the Horizon') 64bit
    _STATISTICS_WRITING_APP-eng: mkvmerge v8.3.0 ('Over the Horizon') 64bit
    _STATISTICS_WRITING_DATE_UTC: 2017-08-21 01:22:38
    _STATISTICS_WRITING_DATE_UTC-eng: 2017-08-21 01:22:38
    _STATISTICS_TAGS: BPS DURATION NUMBER_OF_FRAMES NUMBER_OF_BYTES
    _STATISTICS_TAGS-eng: BPS DURATION NUMBER_OF_FRAMES NUMBER_OF_BYTES
    Stream #0:6(chi): Subtitle: hdmv_pgs_subtitle
    Metadata:
    title : Cht/SUP 原盘繁体(TW)
    BPS : 20203
    BPS-eng : 20203
    DURATION : 02:14:48.581000000
    DURATION-eng : 02:14:48.581000000
    NUMBER_OF_FRAMES: 3290
    NUMBER_OF_FRAMES-eng: 3290
    NUMBER_OF_BYTES : 20426799
    NUMBER_OF_BYTES-eng: 20426799
    _STATISTICS_WRITING_APP: mkvmerge v8.3.0 ('Over the Horizon') 64bit
    _STATISTICS_WRITING_APP-eng: mkvmerge v8.3.0 ('Over the Horizon') 64bit
    _STATISTICS_WRITING_DATE_UTC: 2017-08-21 01:22:38
    _STATISTICS_WRITING_DATE_UTC-eng: 2017-08-21 01:22:38
    _STATISTICS_TAGS: BPS DURATION NUMBER_OF_FRAMES NUMBER_OF_BYTES
    _STATISTICS_TAGS-eng: BPS DURATION NUMBER_OF_FRAMES NUMBER_OF_BYTES
    Stream #0:7(chi): Subtitle: hdmv_pgs_subtitle
    Metadata:
    title : Cht/SUP 原盘繁体(HK)
    BPS : 17112
    BPS-eng : 17112
    DURATION : 02:14:48.581000000
    DURATION-eng : 02:14:48.581000000
    NUMBER_OF_FRAMES: 3176
    NUMBER_OF_FRAMES-eng: 3176
    NUMBER_OF_BYTES : 17302480
    NUMBER_OF_BYTES-eng: 17302480
    _STATISTICS_WRITING_APP: mkvmerge v8.3.0 ('Over the Horizon') 64bit
    _STATISTICS_WRITING_APP-eng: mkvmerge v8.3.0 ('Over the Horizon') 64bit
    _STATISTICS_WRITING_DATE_UTC: 2017-08-21 01:22:38
    _STATISTICS_WRITING_DATE_UTC-eng: 2017-08-21 01:22:38
    _STATISTICS_TAGS: BPS DURATION NUMBER_OF_FRAMES NUMBER_OF_BYTES
    _STATISTICS_TAGS-eng: BPS DURATION NUMBER_OF_FRAMES NUMBER_OF_BYTES
    Stream #0:8(eng): Subtitle: hdmv_pgs_subtitle, 1920x1080
    Metadata:
    title : Eng/SUP Commentary
    BPS : 75457
    BPS-eng : 75457
    DURATION : 02:15:30.539000000
    DURATION-eng : 02:15:30.539000000
    NUMBER_OF_FRAMES: 5018
    NUMBER_OF_FRAMES-eng: 5018
    NUMBER_OF_BYTES : 76688472
    NUMBER_OF_BYTES-eng: 76688472
    _STATISTICS_WRITING_APP: mkvmerge v8.3.0 ('Over the Horizon') 64bit
    _STATISTICS_WRITING_APP-eng: mkvmerge v8.3.0 ('Over the Horizon') 64bit
    _STATISTICS_WRITING_DATE_UTC: 2017-08-21 01:22:38
    _STATISTICS_WRITING_DATE_UTC-eng: 2017-08-21 01:22:38
    _STATISTICS_TAGS: BPS DURATION NUMBER_OF_FRAMES NUMBER_OF_BYTES
    _STATISTICS_TAGS-eng: BPS DURATION NUMBER_OF_FRAMES NUMBER_OF_BYTES
    Stream #0:9(chi): Subtitle: hdmv_pgs_subtitle
    Metadata:
    title : Chs/SUP 原盘纯注释简体
    BPS : 3010
    BPS-eng : 3010
    DURATION : 02:07:03.283000000
    DURATION-eng : 02:07:03.283000000
    NUMBER_OF_FRAMES: 368
    NUMBER_OF_FRAMES-eng: 368
    NUMBER_OF_BYTES : 2868389
    NUMBER_OF_BYTES-eng: 2868389
    _STATISTICS_WRITING_APP: mkvmerge v8.3.0 ('Over the Horizon') 64bit
    _STATISTICS_WRITING_APP-eng: mkvmerge v8.3.0 ('Over the Horizon') 64bit
    _STATISTICS_WRITING_DATE_UTC: 2017-08-21 01:22:38
    _STATISTICS_WRITING_DATE_UTC-eng: 2017-08-21 01:22:38
    _STATISTICS_TAGS: BPS DURATION NUMBER_OF_FRAMES NUMBER_OF_BYTES
    _STATISTICS_TAGS-eng: BPS DURATION NUMBER_OF_FRAMES NUMBER_OF_BYTES
    Stream #0:10(chi): Subtitle: hdmv_pgs_subtitle
    Metadata:
    title : Cht/SUP 原盘纯注释繁体
    BPS : 801
    BPS-eng : 801
    DURATION : 02:06:36.631000000
    DURATION-eng : 02:06:36.631000000
    NUMBER_OF_FRAMES: 116
    NUMBER_OF_FRAMES-eng: 116
    NUMBER_OF_BYTES : 761474
    NUMBER_OF_BYTES-eng: 761474
    _STATISTICS_WRITING_APP: mkvmerge v8.3.0 ('Over the Horizon') 64bit
    _STATISTICS_WRITING_APP-eng: mkvmerge v8.3.0 ('Over the Horizon') 64bit
    _STATISTICS_WRITING_DATE_UTC: 2017-08-21 01:22:38
    _STATISTICS_WRITING_DATE_UTC-eng: 2017-08-21 01:22:38
    _STATISTICS_TAGS: BPS DURATION NUMBER_OF_FRAMES NUMBER_OF_BYTES
    _STATISTICS_TAGS-eng: BPS DURATION NUMBER_OF_FRAMES NUMBER_OF_BYTES
    At least one output file must be specified

    <MEZZMO>: Child process ended with code: 109, ExitCode=1


    ---> DB Level Info: 41, 100
    ---> Frame rate: 23.98
    ---> Aspect ratio: 160:67 PAR=1:1
    ---> Duration: 02:15:46



    Here is another

    ffmpeg version 3.4.2 Copyright (c) 2000-2018 the FFmpeg developers
    built with gcc 7.3.0 (GCC)
    configuration: --enable-gpl --enable-version3 --enable-sdl2 --enable-bzlib --enable-fontconfig --enable-gnutls --enable-iconv --enable-libass --enable-libbluray --enable-libfreetype --enable-libmp3lame --enable-libopencore-amrnb --enable-libopencore-amrwb --enable-libopenjpeg --enable-libopus --enable-libshine --enable-libsnappy --enable-libsoxr --enable-libtheora --enable-libtwolame --enable-libvpx --enable-libwavpack --enable-libwebp --enable-libx264 --enable-libx265 --enable-libxml2 --enable-libzimg --enable-lzma --enable-zlib --enable-gmp --enable-libvidstab --enable-libvorbis --enable-libvo-amrwbenc --enable-libmysofa --enable-libspeex --enable-libxvid --enable-libmfx --enable-cuda --enable-cuvid --enable-d3d11va --enable-nvenc --enable-dxva2 --enable-avisynth
    libavutil 55. 78.100 / 55. 78.100
    libavcodec 57.107.100 / 57.107.100
    libavformat 57. 83.100 / 57. 83.100
    libavdevice 57. 10.100 / 57. 10.100
    libavfilter 6.107.100 / 6.107.100
    libswscale 4. 8.100 / 4. 8.100
    libswresample 2. 9.100 / 2. 9.100
    libpostproc 54. 7.100 / 54. 7.100
    Input #0, matroska,webm, from 'E:\Mezzmo Video\Children Movies\the.nut.job.2.nutty.by.nature.2017.multi.10 80p.bluray.x264-lost.mkv':
    Metadata:
    encoder : libebml v1.3.0 + libmatroska v1.4.1
    Duration: 01:31:13.34, start: 0.000000, bitrate: 10286 kb/s
    Chapter #0:0: start 0.000000, end 230.313000
    Metadata:
    title : 00:00:00.000
    Chapter #0:1: start 230.313000, end 502.043000
    Metadata:
    title : 00:03:50.313
    Chapter #0:2: start 502.043000, end 673.715000
    Metadata:
    title : 00:08:22.043
    Chapter #0:3: start 673.715000, end 912.036000
    Metadata:
    title : 00:11:13.715
    Chapter #0:4: start 912.036000, end 1303.636000
    Metadata:
    title : 00:15:12.036
    Chapter #0:5: start 1303.636000, end 1574.114000
    Metadata:
    title : 00:21:43.636
    Chapter #0:6: start 1574.114000, end 1751.833000
    Metadata:
    title : 00:26:14.114
    Chapter #0:7: start 1751.833000, end 2040.789000
    Metadata:
    title : 00:29:11.833
    Chapter #0:8: start 2040.789000, end 2241.364000
    Metadata:
    title : 00:34:00.789
    Chapter #0:9: start 2241.364000, end 2554.510000
    Metadata:
    title : 00:37:21.364
    Chapter #0:10: start 2554.510000, end 2898.896000
    Metadata:
    title : 00:42:34.510
    Chapter #0:11: start 2898.896000, end 3129.043000
    Metadata:
    title : 00:48:18.896
    Chapter #0:12: start 3129.043000, end 3353.725000
    Metadata:
    title : 00:52:09.043
    Chapter #0:13: start 3353.725000, end 3739.069000
    Metadata:
    title : 00:55:53.725
    Chapter #0:14: start 3739.069000, end 3939.352000
    Metadata:
    title : 01:02:19.069
    Chapter #0:15: start 3939.352000, end 4110.648000
    Metadata:
    title : 01:05:39.352
    Chapter #0:16: start 4110.648000, end 4388.092000
    Metadata:
    title : 01:08:30.648
    Chapter #0:17: start 4388.092000, end 4710.039000
    Metadata:
    title : 01:13:08.092
    Chapter #0:18: start 4710.039000, end 4867.529000
    Metadata:
    title : 01:18:30.039
    Chapter #0:19: start 4867.529000, end 5473.343000
    Metadata:
    title : 01:21:07.529
    Stream #0:0(eng): Video: h264 (High), yuv420p(progressive), 1920x1040, SAR 1:1 DAR 24:13, 23.98 fps, 23.98 tbr, 1k tbn, 47.95 tbc (default)
    Stream #0:1(fre): Audio: ac3, 48000 Hz, stereo, fltp, 256 kb/s (default)
    Metadata:
    title : French AC3 256kbps
    Stream #0:2(eng): Audio: dts (DTS), 48000 Hz, 5.1(side), fltp, 1536 kb/s (default)
    Metadata:
    title : English DTS 1509kbps
    Stream #0:3(fre): Subtitle: subrip
    Metadata:
    title : French
    Stream #0:4(fre): Subtitle: subrip
    Metadata:
    title : French SDH
    At least one output file must be specified

    <MEZZMO>: Child process ended with code: 109, ExitCode=1


    ---> DB Level Info: 41, 100
    ---> Frame rate: 23.98
    ---> Aspect ratio: 24:13 PAR=1:1
    ---> Duration: 01:31:13

  9. #9
    Join Date
    Mar 2018
    Posts
    17

    Default

    It happens after this happens..

    2568 - Mar 11 16:41:25.285 [ThreadID:1f40] - frame=32017 fps= 57 q=26.0 size=N/A time=00:22:15.41 bitrate=N/A speed=2.37x
    2570 - Mar 11 16:41:25.789 [ThreadID:1f40] - frame=32041 fps= 57 q=26.0 size=N/A time=00:22:16.41 bitrate=N/A speed=2.37x
    2572 - Mar 11 16:41:26.292 [ThreadID:1f40] - frame=32067 fps= 57 q=26.0 size=N/A time=00:22:17.62 bitrate=N/A speed=2.37x
    2574 - Mar 11 16:41:26.896 [ThreadID:1f40] - frame=32093 fps= 57 q=26.0 size=N/A time=00:22:18.74 bitrate=N/A speed=2.37x
    2576 - Mar 11 16:41:27.375 [ThreadID:2614] - INFO > Transcoder: width and height at line 1000 (1920x1080)
    2577 - Mar 11 16:41:27.400 [ThreadID:1f40] - frame=32122 fps= 57 q=28.0 size=N/A time=00:22:19.89 bitrate=N/A speed=2.37x
    2579 - Mar 11 16:41:27.400 [ThreadID:2614] - INFO > Transcoder: width and height at line 1000 (1920x1080)
    2580 - Mar 11 16:41:27.407 [ThreadID:2614] - WARN > Transcoder: transcode output file status set to be deleted: 'D:\TranscodingFiles\Mezzmo\C501CEF8-2B89-401b-8641-8F8C89DE71C2\Video\hls-13364-hls-h264_nvenc-aac-sn-128-10.mzt'
    2581 - Mar 11 16:41:27.407 [ThreadID:2614] - > Transcoder: GetAudioVideoFileName: Already exists: D:\TranscodingFiles\Mezzmo\C501CEF8-2B89-401b-8641-8F8C89DE71C2\Video\hls-13364-hls-h264_nvenc-aac-sn-060-10.mzt
    2582 - Mar 11 16:41:27.504 [ThreadID:1f40] -
    <MEZZMO>: Child process ended with code: 109, ExitCode=109
    2583 - Mar 11 16:41:37.429 [ThreadID:2614] - INFO > Transcoder: width and height at line 1000 (1920x1080)
    2584 - Mar 11 16:41:37.429 [ThreadID:2614] - > Transcoder: GetAudioVideoFileName: Already exists: D:\TranscodingFiles\Mezzmo\C501CEF8-2B89-401b-8641-8F8C89DE71C2\Video\hls-13364-hls-h264_nvenc-aac-sn-061-10.mzt
    2585 - Mar 11 16:41:37.450 [ThreadID:2614] - INFO > Transcoder: width and height at line 1000 (1920x1080)
    2586 - Mar 11 16:41:37.450 [ThreadID:2614] - > Transcoder: GetAudioVideoFileName: Already exists: D:\TranscodingFiles\Mezzmo\C501CEF8-2B89-401b-8641-8F8C89DE71C2\Video\hls-13364-hls-h264_nvenc-aac-sn-061-10.mzt


    Here is the full log of it..

    https://pastebin.com/XvJpDL4g

    Posted in Pastebin due to length.

  10. #10
    Join Date
    Sep 2009
    Posts
    1,603

    Default

    We tried it here on a similar file and after transcoding was queued it resumed without the video repeating on the Roku. As a test can you please try going to Transcoding Settings in Mezzmo and disabling hardware encoding for transcoding to see if this is causing the issue?

    Mezzmo Android: Install it on your tablet, smartphone, Android TV or Amazon Fire to browse and stream files from your Mezzmo library to all your devices. Full details at http://www.conceiva.com/products/mez...mo_android.asp
    Mezzmo for Kodi Add-on: Install it into Kodi to stream files from your Mezzmo library directly in Kodi. Full details at http://www.mezzmo.com/wiki/doku.php?...odi_user_guide
    Mezzmo for Roku App: Install it onto your Roku to stream files from your Mezzmo library. Full details at http://www.mezzmo.com/wiki/doku.php?...oku_user_guide
    Wiki: User Guides & Reference Manual at http://www.mezzmo.com/wiki
    Facebook: http://www.facebook.com/Mezzmo.DLNA.Server
    Twitter: https://twitter.com/conceiva_mezzmo
    Web: http://www.mezzmo.com

Similar Threads

  1. v5.0.4.0 issue
    By joe33067 in forum Mezzmo Questions and Support
    Replies: 2
    Last Post: 06-16-2016, 01:17 PM
  2. Possible 4.x Issue
    By ftanner in forum Mezzmo Questions and Support
    Replies: 7
    Last Post: 11-12-2014, 01:10 PM
  3. issue with 3.x.x
    By pmagee in forum Mezzmo Questions and Support
    Replies: 1
    Last Post: 10-09-2013, 07:54 AM
  4. 2.6.4.0 Issue
    By ftanner in forum Mezzmo Questions and Support
    Replies: 5
    Last Post: 07-10-2012, 01:22 AM
  5. Issue with ver 2.3
    By Quinntum in forum Mezzmo Questions and Support
    Replies: 6
    Last Post: 04-16-2011, 04:48 AM

Tags for this Thread

Bookmarks

Posting Permissions

  • You may not post new threads
  • You may not post replies
  • You may not post attachments
  • You may not edit your posts
  •