Page 3 of 3 FirstFirst 123
Results 21 to 23 of 23

Thread: No HEVC x265 Support over DLNA LG

  1. #21
    Join Date
    Apr 2014
    Posts
    28

    Default

    Peter, here's the vid info:

    ffmpeg version N-78742-gf477849 Copyright (c) 2000-2017 the FFmpeg developers
    built with gcc 4.9.2 (GCC)
    configuration: --arch=x86_64 --target-os=mingw32 --cross-prefix=x86_64-w64-mingw32- --enable-static --disable-shared --enable-zlib --disable-postproc --prefix=/home/peter/ffmpeg/build/gpl64 --enable-libmp3lame --enable-libx264 --enable-gpl --extra-libs='-lx264 -lpthread -lstdc++' --enable-runtime-cpudetect --extra-cflags=-I/home/peter/cc32/include --extra-ldflags=-L/home/peter/cc64/lib --pkg-config=pkg-config --pkg-config-flags=--static --disable-w32threads --enable-libvpx --enable-libvorbis --enable-libtheora --enable-libx265 --enable-cuda --enable-cuvid --enable-dxva2 --enable-libmfx --enable-nvenc --enable-gnutls --extra-libs='-lz -lnettle -lhogweed -lgmp -lidn -lws2_32 -lcrypt32'
    libavutil 55. 74.100 / 55. 74.100
    libavcodec 57.103.100 / 57.103.100
    libavformat 57. 76.100 / 57. 76.100
    libavdevice 57. 7.100 / 57. 7.100
    libavfilter 6.100.100 / 6.100.100
    libswscale 4. 7.102 / 4. 7.102
    libswresample 2. 8.100 / 2. 8.100
    Input #0, matroska,webm, from 'C:\Users\bwh54\Videos\New Flix\Vice [2018] x265.mkv':
    Metadata:
    creation_time : 2019-01-16T05:32:08.000000Z
    ENCODER : Lavf58.12.100
    Duration: 02:11:40.25, start: 0.000000, bitrate: 1072 kb/s
    Stream #0:0: Video: hevc (Main), yuv420p(tv), 1280x720 [SAR 405:304 DAR 45:19], SAR 253:190 DAR 2024:855, 29.97 fps, 29.97 tbr, 1k tbn, 29.97 tbc (default)
    Metadata:
    DURATION : 02:11:40.081000000
    Stream #0:1: Audio: mp3, 48000 Hz, stereo, s16p, 128 kb/s (default)
    Metadata:
    title : Stereo
    DURATION : 02:11:40.248000000
    At least one output file must be specified

    <MEZZMO>: Child process ended with code: 109, ExitCode=1


    ---> DB Level Info: 93, 1
    ---> Frame rate: 29.97
    ---> Aspect ratio: 2024:855 PAR=253:190
    ---> Duration: 02:11:40

  2. #22
    Join Date
    Sep 2009
    Posts
    1,993

    Default

    The information does not indicate anything that might be a problem, the file matches the device profile so no transcoding will be performed. Possibly there is something about the mkv container that the TV cannot decode, you could try remuxing the video to another mkv container to see if the TV can play it or copy the file to a USB drive and plug it into the TV.

    The information also indicates that the version of ffmpeg you are using is not the version included with Mezzmo so this could cause transcoding to fail, you can download the installer from our website and run it to restore the ffmpeg version or go to Transcoding Settings in Mezzmo and change the path to ffmpeg back to the original path if you did not overwrite the original ffmpeg.exe.

    Mezzmo Android: Install it on your tablet, smartphone, Android TV or Amazon Fire to browse and stream files from your Mezzmo library to all your devices. Full details at http://www.conceiva.com/products/mez...mo_android.asp
    Mezzmo for Kodi Add-on: Install it into Kodi to stream files from your Mezzmo library directly in Kodi. Full details at http://www.mezzmo.com/wiki/doku.php?...odi_user_guide
    Mezzmo for Roku App: Install it onto your Roku to stream files from your Mezzmo library. Full details at http://www.mezzmo.com/wiki/doku.php?...oku_user_guide
    Wiki: User Guides & Reference Manual at http://www.mezzmo.com/wiki
    Facebook: http://www.facebook.com/Mezzmo.DLNA.Server
    Twitter: https://twitter.com/conceiva_mezzmo
    Web: http://www.mezzmo.com

  3. #23
    Join Date
    Apr 2014
    Posts
    28

    Default

    I did the Mezzmo reinstall, and the one particular x265 vid in question still will not play on my TV.
    I don't know what "remuxing the video to another mkv container" means, but it isn't important --
    please do *not* waste your time trying to educate me, because
    a) I'm an old dog that doesn't need new tricks, and
    b) I have another copy of the video that *does* play properly via Mezzmo.
    Thank you for your usual courtesy and expertise.

Similar Threads

  1. Support for HEVC/H.265
    By ademarfj in forum Mezzmo Wish List and Feedback
    Replies: 10
    Last Post: 02-22-2017, 12:19 PM
  2. Mezzmo 5.0 and h.265/HEVC support to AMD Godavari APUs
    By gpmc in forum Mezzmo Questions and Support
    Replies: 3
    Last Post: 11-17-2016, 03:00 PM
  3. DLNA streaming and subtitle support for Panasonic BDT-230 Blu ray Player
    By shriharsha.p in forum Mezzmo Questions and Support
    Replies: 17
    Last Post: 11-07-2014, 11:22 AM
  4. Playing .x265 encoded MKV
    By jyron in forum Mezzmo Questions and Support
    Replies: 4
    Last Post: 02-10-2014, 08:23 PM
  5. DLNA Support?
    By RayK in forum Mezzmo Questions and Support
    Replies: 1
    Last Post: 11-21-2012, 01:30 PM

Tags for this Thread

Bookmarks

Posting Permissions

  • You may not post new threads
  • You may not post replies
  • You may not post attachments
  • You may not edit your posts
  •