Results 1 to 2 of 2

Thread: I can't play on Xbox 360

  1. #1

    Default I can't play on Xbox 360

    I fully moved over from OS X to Windows, on OS X I was using a program called Mac X DVD Ripper, which has worked very well for me so I decided to use the Windows version Win X DVD Ripper

    However doing this on Windows makes my Xbox 360 say the files are unplayable (used a generic MP4 setting on both)

    Can you let me know if this shows anything strange, as I am sure this is just a setting issue when ripping (but the below doesn't mean too much to me so not sure what I might need to change)

    File with problem

    ffmpeg version N-50460-g393dcbf Copyright (c) 2000-2013 the FFmpeg developers
    built on Jun 27 2013 17:20:20 with gcc 4.6.2 (GCC)
    configuration: --enable-memalign-hack --arch=x86_64 --target-os=mingw32 --cross-prefix=x86_64-w64-mingw32- --enable-static --disable-shared --enable-zlib --disable-postproc --prefix=/home/peter/ffmpeg/build/gpl64 --enable-libmp3lame --enable-libx264 --enable-gpl --extra-libs='-lx264 -lpthread' --enable-runtime-cpudetect --extra-cflags=-I/home/peter/cc64/include --extra-ldflags=-L/home/peter/cc64/lib --pkg-config=pkg-config --disable-w32threads --enable-zlib
    libavutil 52. 17.103 / 52. 17.103
    libavcodec 54. 92.100 / 54. 92.100
    libavformat 54. 63.102 / 54. 63.102
    libavdevice 54. 3.103 / 54. 3.103
    libavfilter 3. 41.100 / 3. 41.100
    libswscale 2. 2.100 / 2. 2.100
    libswresample 0. 17.102 / 0. 17.102
    [mov,mp4,m4a,3gp,3g2,mj2 @ 000000000036dda0] stream 0, timescale not set
    [mov,mp4,m4a,3gp,3g2,mj2 @ 000000000036dda0] Stream #2: not enough frames to estimate rate; consider increasing probesize
    Input #0, mov,mp4,m4a,3gp,3g2,mj2, from 'E:\Videos\TV\Citizen Khan\Season 1\Citizen Khan S01E01.mp4':
    Metadata:
    major_brand : isom
    minor_version : 512
    compatible_brands: isomiso2mp41
    genre : Comedy
    title : Citizen Khan S01E01
    encoder : Lavf54.46.100
    date : 2012
    Duration: 00:28:34.00, start: 0.000000, bitrate: 1614 kb/s
    Stream #0:0(und): Video: mpeg4 (Simple Scalable Profile) (mp4v / 0x7634706D), yuv420p, 720x406 [SAR 1:1 DAR 360:203], 1481 kb/s, 25 fps, 25 tbr, 12800 tbn, 25 tbc
    Metadata:
    handler_name : VideoHandler
    Stream #0:1(und): Audio: aac (mp4a / 0x6134706D), 44100 Hz, stereo, fltp, 127 kb/s
    Metadata:
    handler_name : SoundHandler
    Stream #0:2: Video: mjpeg, yuvj420p, 400x400 [SAR 1:1 DAR 1:1], 90k tbr, 90k tbn, 90k tbc
    At least one output file must be specified

    <MEZZMO>: Child process ended with code: 109, ExitCode=1


    ---> DB Level Info: 14, 1
    ---> Frame rate: 25.00
    ---> Aspect ratio: 360:203 PAR=1:1

  2. #2
    Join Date
    Sep 2009
    Posts
    1,569

    Default

    Hi,
    I believe the problem is in the mpeg4 codec, usually the code is XVID or DIVX for the Xbox to play the file, you will need to check the FourCC code that is being written to the video codec to make sure it is one of these values or change the encoding to h264 which should work better.

    Mezzmo Android: Install it on your tablet, smartphone, Android TV or Amazon Fire to browse and stream files from your Mezzmo library to all your devices. Full details at http://www.conceiva.com/products/mez...mo_android.asp
    Mezzmo for Kodi Add-on: Install it into Kodi to stream files from your Mezzmo library directly in Kodi. Full details at http://www.mezzmo.com/wiki/doku.php?...odi_user_guide
    Mezzmo for Roku App: Install it onto your Roku to stream files from your Mezzmo library. Full details at http://www.mezzmo.com/wiki/doku.php?...oku_user_guide
    Wiki: User Guides & Reference Manual at http://www.mezzmo.com/wiki
    Facebook: http://www.facebook.com/Mezzmo.DLNA.Server
    Twitter: https://twitter.com/conceiva_mezzmo
    Web: http://www.mezzmo.com

Similar Threads

  1. Replies: 10
    Last Post: 01-22-2014, 09:18 AM
  2. Files no long play on xBox 360
    By jumpingship in forum Mezzmo Questions and Support
    Replies: 4
    Last Post: 11-12-2013, 09:49 AM
  3. Play List sort order on Xbox
    By paulsalter in forum Mezzmo Questions and Support
    Replies: 3
    Last Post: 09-30-2013, 09:47 AM
  4. xbox 360 unsupported format / wont play
    By white westie in forum Mezzmo Questions and Support
    Replies: 6
    Last Post: 02-28-2012, 10:08 AM
  5. MKV to Xbox 360
    By JJenson in forum Mezzmo Questions and Support
    Replies: 3
    Last Post: 09-26-2011, 10:00 AM

Tags for this Thread

Bookmarks

Posting Permissions

  • You may not post new threads
  • You may not post replies
  • You may not post attachments
  • You may not edit your posts
  •