Results 1 to 6 of 6

Thread: LG OLED65C7T Profile

  1. #1
    Join Date
    Jul 2018
    Posts
    3

    Default LG OLED65C7T Profile

    Hi,

    I am having some difficulties getting Mezzmo V5.2.0.0 to transcode files to my LG OLDC7T tv automatically using a profile.

    When I select the LG 2017 profiles, mkv files do not transcode. I get a message stating the files are not supported by my TV.

    When i select the LG TV Ultra HD profile, mkv files are represented with a 16gb file size and fail to transcode.

    The actual file is 1gb and i have a i7-8700T CPU with 32GB of ram running on a fast SSD.

    I have stopped and restarted the mezzmo server.

    Please advise how i can get Mezzmo to work correctly with my TV and transcode this files on the fly.
    Currently the only way i can get these to work is to transcode all files manually.

    Thanks,

    AJ

  2. #2
    Join Date
    Sep 2009
    Posts
    1,670

    Default

    Hi,
    can you please post the ffmpeg information of one of the files or send the information to support [at] conceiva [dot] com so we can see more detail about the files? Right-click on the file in Mezzmo and select 'Get FFmpeg Information' then copy and paste the text.

    Mezzmo Android: Install it on your tablet, smartphone, Android TV or Amazon Fire to browse and stream files from your Mezzmo library to all your devices. Full details at http://www.conceiva.com/products/mez...mo_android.asp
    Mezzmo for Kodi Add-on: Install it into Kodi to stream files from your Mezzmo library directly in Kodi. Full details at http://www.mezzmo.com/wiki/doku.php?...odi_user_guide
    Mezzmo for Roku App: Install it onto your Roku to stream files from your Mezzmo library. Full details at http://www.mezzmo.com/wiki/doku.php?...oku_user_guide
    Wiki: User Guides & Reference Manual at http://www.mezzmo.com/wiki
    Facebook: http://www.facebook.com/Mezzmo.DLNA.Server
    Twitter: https://twitter.com/conceiva_mezzmo
    Web: http://www.mezzmo.com

  3. #3
    Join Date
    Jul 2018
    Posts
    3

    Default

    Here is my ffmpeg info

    ffmpeg version N-78742-gf477849 Copyright (c) 2000-2017 the FFmpeg developers
    built with gcc 4.9.2 (GCC)
    configuration: --arch=x86_64 --target-os=mingw32 --cross-prefix=x86_64-w64-mingw32- --enable-static --disable-shared --enable-zlib --disable-postproc --prefix=/home/peter/ffmpeg/build/gpl64 --enable-libmp3lame --enable-libx264 --enable-gpl --extra-libs='-lx264 -lpthread -lstdc++' --enable-runtime-cpudetect --extra-cflags=-I/home/peter/cc32/include --extra-ldflags=-L/home/peter/cc64/lib --pkg-config=pkg-config --pkg-config-flags=--static --disable-w32threads --enable-libvpx --enable-libvorbis --enable-libtheora --enable-libx265 --enable-cuda --enable-cuvid --enable-dxva2 --enable-libmfx --enable-nvenc --enable-gnutls --extra-libs='-lz -lnettle -lhogweed -lgmp -lidn -lws2_32 -lcrypt32'
    libavutil 55. 74.100 / 55. 74.100
    libavcodec 57.103.100 / 57.103.100
    libavformat 57. 76.100 / 57. 76.100
    libavdevice 57. 7.100 / 57. 7.100
    libavfilter 6.100.100 / 6.100.100
    libswscale 4. 7.102 / 4. 7.102
    libswresample 2. 8.100 / 2. 8.100
    Input #0, matroska,webm,

  4. #4
    Join Date
    Sep 2009
    Posts
    1,670

    Default

    can you please try getting the ffmpeg information again as the audio and video codecs do not appear to be listed.

    Mezzmo Android: Install it on your tablet, smartphone, Android TV or Amazon Fire to browse and stream files from your Mezzmo library to all your devices. Full details at http://www.conceiva.com/products/mez...mo_android.asp
    Mezzmo for Kodi Add-on: Install it into Kodi to stream files from your Mezzmo library directly in Kodi. Full details at http://www.mezzmo.com/wiki/doku.php?...odi_user_guide
    Mezzmo for Roku App: Install it onto your Roku to stream files from your Mezzmo library. Full details at http://www.mezzmo.com/wiki/doku.php?...oku_user_guide
    Wiki: User Guides & Reference Manual at http://www.mezzmo.com/wiki
    Facebook: http://www.facebook.com/Mezzmo.DLNA.Server
    Twitter: https://twitter.com/conceiva_mezzmo
    Web: http://www.mezzmo.com

  5. #5
    Join Date
    Jul 2018
    Posts
    3

    Default

    Here u go


    fmpeg version N-78742-gf477849 Copyright (c) 2000-2017 the FFmpeg developers
    built with gcc 4.9.2 (GCC)
    configuration: --arch=x86_64 --target-os=mingw32 --cross-prefix=x86_64-w64-mingw32- --enable-static --disable-shared --enable-zlib --disable-postproc --prefix=/home/peter/ffmpeg/build/gpl64 --enable-libmp3lame --enable-libx264 --enable-gpl --extra-libs='-lx264 -lpthread -lstdc++' --enable-runtime-cpudetect --extra-cflags=-I/home/peter/cc32/include --extra-ldflags=-L/home/peter/cc64/lib --pkg-config=pkg-config --pkg-config-flags=--static --disable-w32threads --enable-libvpx --enable-libvorbis --enable-libtheora --enable-libx265 --enable-cuda --enable-cuvid --enable-dxva2 --enable-libmfx --enable-nvenc --enable-gnutls --extra-libs='-lz -lnettle -lhogweed -lgmp -lidn -lws2_32 -lcrypt32'
    libavutil 55. 74.100 / 55. 74.100
    libavcodec 57.103.100 / 57.103.100
    libavformat 57. 76.100 / 57. 76.100
    libavdevice 57. 7.100 / 57. 7.100
    libavfilter 6.100.100 / 6.100.100
    libswscale 4. 7.102 / 4. 7.102
    libswresample 2. 8.100 / 2. 8.100
    Input #0, matroska,webm, from 'E:\Movies\Mcmafia\S1\McMafia (2018) Season 1 S01 + Extras (1080p BluRay x265 HEVC 10bit AAC 5.1 RCVR)\McMafia (2018) - S01E03 - Episode 3 (1080p BluRay x265 RCVR).mkv':
    Metadata:
    title : McMAFIA D1
    encoder : libebml v1.3.4 + libmatroska v1.4.5
    creation_time : 2018-05-13T22:09:21.000000Z
    Duration: 00:53:23.41, start: 0.000000, bitrate: 2749 kb/s
    Chapter #0:0: start 0.000000, end 573.800000
    Metadata:
    title : Chapter 01
    Chapter #0:1: start 573.800000, end 1115.760000
    Metadata:
    title : Chapter 02
    Chapter #0:2: start 1115.760000, end 1876.400000
    Metadata:
    title : Chapter 03
    Chapter #0:3: start 1876.400000, end 2443.880000
    Metadata:
    title : Chapter 04
    Chapter #0:4: start 2443.880000, end 2838.160000
    Metadata:
    title : Chapter 05
    Chapter #0:5: start 2838.160000, end 3203.400000
    Metadata:
    title : Chapter 06
    Stream #0:0: Video: hevc (Main 10), yuv420p10le(tv), 1920x1080, SAR 1:1 DAR 16:9, 25 fps, 25 tbr, 1k tbn, 25 tbc (default)
    Metadata:
    BPS : 2353629
    BPS-eng : 2353629
    DURATION : 00:53:23.400000000
    DURATION-eng : 00:53:23.400000000
    NUMBER_OF_FRAMES: 80085
    NUMBER_OF_FRAMES-eng: 80085
    NUMBER_OF_BYTES : 942452229
    NUMBER_OF_BYTES-eng: 942452229
    _STATISTICS_WRITING_APP: mkvmerge v12.0.0 ('Trust / Lust') 64bit
    _STATISTICS_WRITING_APP-eng: mkvmerge v12.0.0 ('Trust / Lust') 64bit
    _STATISTICS_WRITING_DATE_UTC: 2018-05-13 22:09:21
    _STATISTICS_WRITING_DATE_UTC-eng: 2018-05-13 22:09:21
    _STATISTICS_TAGS: BPS DURATION NUMBER_OF_FRAMES NUMBER_OF_BYTES
    _STATISTICS_TAGS-eng: BPS DURATION NUMBER_OF_FRAMES NUMBER_OF_BYTES
    Stream #0:1(eng): Audio: aac (LC), 48000 Hz, 5.1, fltp (default)
    Metadata:
    BPS : 386606
    BPS-eng : 386606
    DURATION : 00:53:23.392000000
    DURATION-eng : 00:53:23.392000000
    NUMBER_OF_FRAMES: 150159
    NUMBER_OF_FRAMES-eng: 150159
    NUMBER_OF_BYTES : 154806545
    NUMBER_OF_BYTES-eng: 154806545
    _STATISTICS_WRITING_APP: mkvmerge v12.0.0 ('Trust / Lust') 64bit
    _STATISTICS_WRITING_APP-eng: mkvmerge v12.0.0 ('Trust / Lust') 64bit
    _STATISTICS_WRITING_DATE_UTC: 2018-05-13 22:09:21
    _STATISTICS_WRITING_DATE_UTC-eng: 2018-05-13 22:09:21
    _STATISTICS_TAGS: BPS DURATION NUMBER_OF_FRAMES NUMBER_OF_BYTES
    _STATISTICS_TAGS-eng: BPS DURATION NUMBER_OF_FRAMES NUMBER_OF_BYTES
    Stream #0:2(eng): Subtitle: hdmv_pgs_subtitle, 1920x1080
    Metadata:
    BPS : 6717
    BPS-eng : 6717
    DURATION : 00:52:34.920000000
    DURATION-eng : 00:52:34.920000000
    NUMBER_OF_FRAMES: 842
    NUMBER_OF_FRAMES-eng: 842
    NUMBER_OF_BYTES : 2649235
    NUMBER_OF_BYTES-eng: 2649235
    _STATISTICS_WRITING_APP: mkvmerge v12.0.0 ('Trust / Lust') 64bit
    _STATISTICS_WRITING_APP-eng: mkvmerge v12.0.0 ('Trust / Lust') 64bit
    _STATISTICS_WRITING_DATE_UTC: 2018-05-13 22:09:21
    _STATISTICS_WRITING_DATE_UTC-eng: 2018-05-13 22:09:21
    _STATISTICS_TAGS: BPS DURATION NUMBER_OF_FRAMES NUMBER_OF_BYTES
    _STATISTICS_TAGS-eng: BPS DURATION NUMBER_OF_FRAMES NUMBER_OF_BYTES
    Stream #0:3: Video: mjpeg, yuvj420p(pc, bt470bg/unknown/unknown), 600x800 [SAR 96:96 DAR 3:4], 90k tbr, 90k tbn, 90k tbc
    Metadata:
    filename : cover.jpg
    mimetype : image/jpeg
    At least one output file must be specified

    <MEZZMO>: Child process ended with code: 109, ExitCode=1

  6. #6
    Join Date
    Sep 2009
    Posts
    1,670

    Default

    It could be a problem with the thumbnail embedded in the file as Stream #0:3 which the TV may be trying to open as the main video or it could be an issue with the subtitles stream. The video and audio both match the device profile so the file is being delivered to the TV without transcoding. You can try using the LG TV (2015 Models) profile and this will transcode the file on the fly.

    Mezzmo Android: Install it on your tablet, smartphone, Android TV or Amazon Fire to browse and stream files from your Mezzmo library to all your devices. Full details at http://www.conceiva.com/products/mez...mo_android.asp
    Mezzmo for Kodi Add-on: Install it into Kodi to stream files from your Mezzmo library directly in Kodi. Full details at http://www.mezzmo.com/wiki/doku.php?...odi_user_guide
    Mezzmo for Roku App: Install it onto your Roku to stream files from your Mezzmo library. Full details at http://www.mezzmo.com/wiki/doku.php?...oku_user_guide
    Wiki: User Guides & Reference Manual at http://www.mezzmo.com/wiki
    Facebook: http://www.facebook.com/Mezzmo.DLNA.Server
    Twitter: https://twitter.com/conceiva_mezzmo
    Web: http://www.mezzmo.com

Similar Threads

  1. Trascoding controlled by DMC profile instead of DMR profile?
    By Olli-Pekka Isola in forum DownloadStudio Questions and Support
    Replies: 3
    Last Post: 05-02-2017, 09:17 AM
  2. What device profile do I need?
    By Ritterby in forum Mezzmo Questions and Support
    Replies: 1
    Last Post: 06-24-2016, 08:40 AM
  3. Profile For 2015 LG TV
    By Marshall1975 in forum Mezzmo Questions and Support
    Replies: 1
    Last Post: 01-24-2016, 09:24 AM
  4. Device profile Sony 2014 BLuray ISO only works on old profile
    By shueardm in forum Mezzmo Questions and Support
    Replies: 10
    Last Post: 11-12-2014, 09:32 AM
  5. VLC client profile
    By itsmydamnation in forum Mezzmo Wish List and Feedback
    Replies: 14
    Last Post: 02-15-2013, 09:16 PM

Tags for this Thread

Bookmarks

Posting Permissions

  • You may not post new threads
  • You may not post replies
  • You may not post attachments
  • You may not edit your posts
  •