Results 1 to 2 of 2

Thread: ffmpeg audio not supported info

  1. #1
    Join Date
    Oct 2017
    Posts
    1

    Default ffmpeg audio not supported info

    Hello, I'm not sure if there's a correct procedure to submit audio problems, but see below the FFMEG info of a file which my Panasonic Viera DT30 does not support. I've encountered this before and after playing some other files the problem file plays fine - odd?

    ffmpeg version N-78742-gf477849 Copyright (c) 2000-2017 the FFmpeg developers
    built with gcc 4.9.2 (GCC)
    configuration: --arch=x86_64 --target-os=mingw32 --cross-prefix=x86_64-w64-mingw32- --enable-static --disable-shared --enable-zlib --disable-postproc --prefix=/home/peter/ffmpeg/build/gpl64 --enable-libmp3lame --enable-libx264 --enable-gpl --extra-libs='-lx264 -lpthread -lstdc++' --enable-runtime-cpudetect --extra-cflags=-I/home/peter/cc32/include --extra-ldflags=-L/home/peter/cc64/lib --pkg-config=pkg-config --pkg-config-flags=--static --disable-w32threads --enable-libvpx --enable-libvorbis --enable-libtheora --enable-libx265 --enable-cuda --enable-cuvid --enable-dxva2 --enable-libmfx --enable-nvenc --enable-gnutls --extra-libs='-lz -lnettle -lhogweed -lgmp -lidn -lws2_32 -lcrypt32'
    libavutil 55. 74.100 / 55. 74.100
    libavcodec 57.103.100 / 57.103.100
    libavformat 57. 76.100 / 57. 76.100
    libavdevice 57. 7.100 / 57. 7.100
    libavfilter 6.100.100 / 6.100.100
    libswscale 4. 7.102 / 4. 7.102
    libswresample 2. 8.100 / 2. 8.100
    Input #0, matroska,webm, from 'C:\Users\User\Downloads\Tom.Clancys.Jack.Ryan.S01 E05.720p.WEB.H264-MEMENTO[rarbg]\tom.clancys.jack.ryan.s01e05.720p.web.h264-memento.mkv':
    Metadata:
    title : Tom Clancy's Jack Ryan S01E05
    encoder : Lavf57.72.101
    Duration: 00:49:03.39, start: 0.000000, bitrate: 2836 kb/s
    Stream #0:0: Video: h264 (High), yuv420p(tv, bt709, progressive), 1280x720 [SAR 1:1 DAR 16:9], 23.98 fps, 23.98 tbr, 1k tbn, 47.95 tbc (default)
    Stream #0:1(en): Audio: eac3, 48000 Hz, 5.1(side), fltp, 640 kb/s (default)
    Metadata:
    title : English
    Stream #0:2(en-us): Subtitle: subrip
    Metadata:
    title : English [CC]
    At least one output file must be specified

    <MEZZMO>: Child process ended with code: 109, ExitCode=1


    ---> DB Level Info: 31, 100
    ---> Frame rate: 23.98
    ---> Aspect ratio: 16:9 PAR=1:1
    ---> Duration: 00:49:03

    ANY ADVICE WOULD HELP PLEASE?

    Cheers

  2. #2
    Join Date
    Nov 2007
    Location
    Melbourne, Australia
    Posts
    11,610

    Default

    If your TV says that the audio channel is not supported, then your TV does not support the "eac3" audio format. As a test, you can pre-transcode the video file to another format and see if that works. Right-click on the video in Mezzmo and click 'Pre-transcode File'. On the Pre-transcode File dialog, select your TV and click 'Choose Formats'. On the Transcode Formats dialog, select the bolded format and select the 'Force full transcode of all channels' checkbox. Click OK to save these format settings and click OK to start transcoding. Once transcoding has completed, try streaming the file again to your TV. If that works, let us know the device profile that is currently assigned to your TV. Go to the Media Devices dialog to see this. If the video did not play correctly, then repeat the steps and choose a different format (not the bolded one) and see how that goes. Let us know the result.

    Mezzmo Android: Install it on your tablet, smartphone, Android TV or Amazon Fire to browse and stream files from your Mezzmo library to all your devices. Full details at http://www.conceiva.com/products/mez...mo_android.asp
    Mezzmo for Kodi Add-on: Install it into Kodi to stream files from your Mezzmo library directly in Kodi. Full details at http://www.mezzmo.com/wiki/doku.php?...odi_user_guide
    Mezzmo for Roku App: Install it onto your Roku to stream files from your Mezzmo library. Full details at http://www.mezzmo.com/wiki/doku.php?...oku_user_guide
    Wiki: User Guides & Reference Manual at http://www.mezzmo.com/wiki
    Facebook: http://www.facebook.com/Mezzmo.DLNA.Server
    Twitter: https://twitter.com/conceiva_mezzmo
    Web: http://www.mezzmo.com

Similar Threads

  1. How to get my register info ?
    By Elochai in forum DownloadStudio Questions and Support
    Replies: 7
    Last Post: 10-19-2017, 10:12 PM
  2. URL (audio stream) not supported
    By LRC in forum Mezzmo Questions and Support
    Replies: 1
    Last Post: 12-12-2016, 09:30 AM
  3. Audio file not supported
    By dedum in forum Mezzmo Questions and Support
    Replies: 6
    Last Post: 06-24-2013, 08:35 AM
  4. Use FFmpeg to tag Audio files
    By Silvos in forum Mezzmo Wish List and Feedback
    Replies: 5
    Last Post: 03-08-2011, 01:25 PM
  5. More info in the Status field
    By Dillster in forum Mezzmo Wish List and Feedback
    Replies: 3
    Last Post: 07-21-2010, 04:19 PM

Tags for this Thread

Bookmarks

Posting Permissions

  • You may not post new threads
  • You may not post replies
  • You may not post attachments
  • You may not edit your posts
  •