Results 1 to 2 of 2

Thread: LG TV doesn't play a mkv file

  1. #1

    Default LG TV doesn't play a mkv file

    C:\Program Files\Conceiva\Mezzmo\ffmpeg32\ffmpeg.exe -y -hwaccel auto -threads 1 -i "D:\МУЛЬТИКИ\+Полнометражные\Суперсемейка.mkv" -map 0:v:0 -map 0:a:0 -c:v:0 mpeg2video -b:v 8600000 -maxrate 25000000 -bufsize 1835008 -copyts -filter:v "yadif" -pix_fmt yuv420p -copyinkf -sc_threshold 1000000000 -coder ac -qmin 1 -cmp 2 -subcmp 2 -flags +mv0 -mbd bits -c:a:0 ac3_fixed -ac 6 -ab 448000 -ar 48000 -sn -threads 0 -async 0 -f vob "D:\Mezzmo\TranscodingFiles\87A119BF-D971-4746-B6D1-0EEE7EFD48A7\Video\28603-mpeg-mpeg2video-ac3-sn.mzt"

    ffmpeg version N-92226-g2797bd5c81 Copyright (c) 2000-2018 the FFmpeg developers
    built with gcc 8.2.1 (GCC) 20181017
    configuration: --enable-gpl --enable-version3 --enable-sdl2 --enable-fontconfig --enable-gnutls --enable-iconv --enable-libass --enable-libbluray --enable-libfreetype --enable-libmp3lame --enable-libopencore-amrnb --enable-libopencore-amrwb --enable-libopenjpeg --enable-libopus --enable-libshine --enable-libsnappy --enable-libsoxr --enable-libtheora --enable-libtwolame --enable-libvpx --enable-libwavpack --enable-libwebp --enable-libx264 --enable-libx265 --enable-libxml2 --enable-libzimg --enable-lzma --enable-zlib --enable-gmp --enable-libvidstab --enable-libvorbis --enable-libvo-amrwbenc --enable-libmysofa --enable-libspeex --enable-libxvid --enable-libaom --enable-libmfx --enable-amf --enable-ffnvcodec --enable-cuvid --enable-d3d11va --enable-nvenc --enable-nvdec --enable-dxva2 --enable-avisynth
    libavutil 56. 19.101 / 56. 19.101
    libavcodec 58. 33.102 / 58. 33.102
    libavformat 58. 19.101 / 58. 19.101
    libavdevice 58. 4.105 / 58. 4.105
    libavfilter 7. 36.100 / 7. 36.100
    libswscale 5. 2.100 / 5. 2.100
    libswresample 3. 2.100 / 3. 2.100
    libpostproc 55. 2.100 / 55. 2.100
    Input #0, matroska,webm, from 'D:\МУЛЬТИКИ\+Полнометражные\Суперсемейка.mkv':
    Metadata:
    encoder : libebml v1.0.0 + libmatroska v1.0.0
    creation_time : 2011-04-08T05:07:06.000000Z
    Duration: 01:55:25.84, start: 0.000000, bitrate: 5421 kb/s
    Stream #0:0(eng): Video: h264 (High), yuv420p(progressive), 1920x800 [SAR 1:1 DAR 12:5], 23.98 fps, 23.98 tbr, 1k tbn, 47.95 tbc (default)
    Stream #0:1(rus): Audio: ac3, 48000 Hz, 5.1(side), fltp, 384 kb/s (default)
    Stream #0:2(rus): Subtitle: subrip (default) (forced)
    [AVHWDeviceContext @ 0559e0c0] Failed to create Direct3D device
    Device creation failed: -1313558101.

    <MEZZMO>: Child process ended with code: 109, ExitCode=-1073741819
    ffmpeg version N-92226-g2797bd5c81 Copyright (c) 2000-2018 the FFmpeg developers
    built with gcc 8.2.1 (GCC) 20181017
    configuration: --enable-gpl --enable-version3 --enable-sdl2 --enable-fontconfig --enable-gnutls --enable-iconv --enable-libass --enable-libbluray --enable-libfreetype --enable-libmp3lame --enable-libopencore-amrnb --enable-libopencore-amrwb --enable-libopenjpeg --enable-libopus --enable-libshine --enable-libsnappy --enable-libsoxr --enable-libtheora --enable-libtwolame --enable-libvpx --enable-libwavpack --enable-libwebp --enable-libx264 --enable-libx265 --enable-libxml2 --enable-libzimg --enable-lzma --enable-zlib --enable-gmp --enable-libvidstab --enable-libvorbis --enable-libvo-amrwbenc --enable-libmysofa --enable-libspeex --enable-libxvid --enable-libaom --enable-libmfx --enable-amf --enable-ffnvcodec --enable-cuvid --enable-d3d11va --enable-nvenc --enable-nvdec --enable-dxva2 --enable-avisynth
    libavutil 56. 19.101 / 56. 19.101
    libavcodec 58. 33.102 / 58. 33.102
    libavformat 58. 19.101 / 58. 19.101
    libavdevice 58. 4.105 / 58. 4.105
    libavfilter 7. 36.100 / 7. 36.100
    libswscale 5. 2.100 / 5. 2.100
    libswresample 3. 2.100 / 3. 2.100
    libpostproc 55. 2.100 / 55. 2.100
    Input #0, matroska,webm, from 'D:\МУЛЬТИКИ\+Полнометражные\Суперсемейка.mkv':
    Metadata:
    encoder : libebml v1.0.0 + libmatroska v1.0.0
    creation_time : 2011-04-08T05:07:06.000000Z
    Duration: 01:55:25.84, start: 0.000000, bitrate: 5421 kb/s
    Stream #0:0(eng): Video: h264 (High), yuv420p(progressive), 1920x800 [SAR 1:1 DAR 12:5], 23.98 fps, 23.98 tbr, 1k tbn, 47.95 tbc (default)
    Stream #0:1(rus): Audio: ac3, 48000 Hz, 5.1(side), fltp, 384 kb/s (default)
    Stream #0:2(rus): Subtitle: subrip (default) (forced)
    [AVHWDeviceContext @ 054ce300] Failed to create Direct3D device
    Device creation failed: -1313558101.

    <MEZZMO>: Child process ended with code: 109, ExitCode=-1073741819

  2. #2
    Join Date
    Sep 2009
    Posts
    1,741

    Default

    There is an error when transcoding, try going to Transcoding Settings in Mezzmo and select Decode: None under Hardware acceleration.

    Mezzmo Android: Install it on your tablet, smartphone, Android TV or Amazon Fire to browse and stream files from your Mezzmo library to all your devices. Full details at http://www.conceiva.com/products/mez...mo_android.asp
    Mezzmo for Kodi Add-on: Install it into Kodi to stream files from your Mezzmo library directly in Kodi. Full details at http://www.mezzmo.com/wiki/doku.php?...odi_user_guide
    Mezzmo for Roku App: Install it onto your Roku to stream files from your Mezzmo library. Full details at http://www.mezzmo.com/wiki/doku.php?...oku_user_guide
    Wiki: User Guides & Reference Manual at http://www.mezzmo.com/wiki
    Facebook: http://www.facebook.com/Mezzmo.DLNA.Server
    Twitter: https://twitter.com/conceiva_mezzmo
    Web: http://www.mezzmo.com

Similar Threads

  1. MP4 doesn't play on Samsung LE40B650
    By Olsa in forum Mezzmo Questions and Support
    Replies: 4
    Last Post: 05-16-2013, 06:01 AM
  2. Found a file Samsung D6000 TV won't play, transcoding doesn't kick in.
    By millercentral in forum Mezzmo Questions and Support
    Replies: 4
    Last Post: 01-06-2012, 04:16 PM
  3. Movie doesn't play.
    By Josip in forum Mezzmo Questions and Support
    Replies: 12
    Last Post: 01-18-2011, 02:02 PM
  4. MKV that doesn't play
    By elizabeth in forum Mezzmo Questions and Support
    Replies: 3
    Last Post: 12-21-2010, 08:58 AM
  5. MP4 doesn't play on Samsung LE40C650
    By Pewima in forum Mezzmo Questions and Support
    Replies: 6
    Last Post: 07-02-2010, 08:51 AM

Tags for this Thread

Bookmarks

Posting Permissions

  • You may not post new threads
  • You may not post replies
  • You may not post attachments
  • You may not edit your posts
  •