Results 1 to 2 of 2

Thread: LG TV (2015 models) Profile not working for x265 codec's

  1. #1

    Default LG TV (2015 models) Profile not working for x265 codec's

    Recent x265 videos do not play on my "[LG] webOS TV softweare version 04.05.60", using profile "LG TV (2015 models)"

    Please advise which profile to use so that transcoding occur correctly

    The ffmpeg for one such file is:

    ffmpeg version N-78742-gf477849 Copyright (c) 2000-2017 the FFmpeg developers
    built with gcc 4.9.2 (GCC)
    configuration: --arch=x86_64 --target-os=mingw32 --cross-prefix=x86_64-w64-mingw32- --enable-static --disable-shared --enable-zlib --disable-postproc --prefix=/home/peter/ffmpeg/build/gpl64 --enable-libmp3lame --enable-libx264 --enable-gpl --extra-libs='-lx264 -lpthread -lstdc++' --enable-runtime-cpudetect --extra-cflags=-I/home/peter/cc32/include --extra-ldflags=-L/home/peter/cc64/lib --pkg-config=pkg-config --pkg-config-flags=--static --disable-w32threads --enable-libvpx --enable-libvorbis --enable-libtheora --enable-libx265 --enable-cuda --enable-cuvid --enable-dxva2 --enable-libmfx --enable-nvenc --enable-gnutls --extra-libs='-lz -lnettle -lhogweed -lgmp -lidn -lws2_32 -lcrypt32'
    libavutil 55. 74.100 / 55. 74.100
    libavcodec 57.103.100 / 57.103.100
    libavformat 57. 76.100 / 57. 76.100
    libavdevice 57. 7.100 / 57. 7.100
    libavfilter 6.100.100 / 6.100.100
    libswscale 4. 7.102 / 4. 7.102
    libswresample 2. 8.100 / 2. 8.100
    Input #0, matroska,webm, from '***********************.720p.HDTV.x265.mkv':
    Metadata:
    title : *****************
    ENCODER : Lavf57.56.101
    Duration: 00:56:55.42, start: 0.000000, bitrate: 494 kb/s
    Stream #0:0(eng): Video: hevc (Main), yuv420p(tv, progressive), 1280x640 [SAR 1:1 DAR 2:1], 25 fps, 25 tbr, 1k tbn, 25 tbc (default)
    Metadata:
    ENCODER : Lavc57.64.101 libx265
    DURATION : 00:56:55.417000000
    Stream #0:1(eng): Audio: aac (LC), 48000 Hz, stereo, fltp (default)
    Metadata:
    ENCODER : Lavc57.64.101 aac
    DURATION : 00:56:55.317000000
    Stream #0:2(eng): Subtitle: subrip
    Metadata:
    DURATION : 00:56:17.525000000
    At least one output file must be specified

    <MEZZMO>: Child process ended with code: 109, ExitCode=1


    ---> DB Level Info: 93, 1
    ---> Frame rate: 25.00
    ---> Aspect ratio: 2:1 PAR=1:1
    ---> Duration: 00:56:55

  2. #2
    Join Date
    Sep 2009
    Posts
    1,886

    Default

    If you have transcoding enabled the LG TV (2015 Models) profile will transcode h265 videos to h264.

    Mezzmo Android: Install it on your tablet, smartphone, Android TV or Amazon Fire to browse and stream files from your Mezzmo library to all your devices. Full details at http://www.conceiva.com/products/mez...mo_android.asp
    Mezzmo for Kodi Add-on: Install it into Kodi to stream files from your Mezzmo library directly in Kodi. Full details at http://www.mezzmo.com/wiki/doku.php?...odi_user_guide
    Mezzmo for Roku App: Install it onto your Roku to stream files from your Mezzmo library. Full details at http://www.mezzmo.com/wiki/doku.php?...oku_user_guide
    Wiki: User Guides & Reference Manual at http://www.mezzmo.com/wiki
    Facebook: http://www.facebook.com/Mezzmo.DLNA.Server
    Twitter: https://twitter.com/conceiva_mezzmo
    Web: http://www.mezzmo.com

Similar Threads

  1. x265 not play in LG TV
    By fly2heaven in forum Mezzmo Questions and Support
    Replies: 4
    Last Post: 10-22-2018, 09:29 AM
  2. Profile For 2015 LG TV
    By Marshall1975 in forum Mezzmo Questions and Support
    Replies: 1
    Last Post: 01-24-2016, 09:24 AM
  3. Samsung UHD 55, Audio Codec TrueHD not working
    By juntiedt in forum Mezzmo Questions and Support
    Replies: 11
    Last Post: 02-12-2015, 11:26 AM
  4. Major release, major issues with LG TV (2012 models) profile.
    By cipdor76 in forum Mezzmo Questions and Support
    Replies: 1
    Last Post: 02-20-2013, 07:19 PM
  5. Not working Oppo BDP profile
    By mcemsi in forum Mezzmo Questions and Support
    Replies: 3
    Last Post: 09-10-2010, 09:52 AM

Tags for this Thread

Bookmarks

Posting Permissions

  • You may not post new threads
  • You may not post replies
  • You may not post attachments
  • You may not edit your posts
  •