Results 1 to 5 of 5

Thread: MP4 file recognized as audio , but it is video file !

  1. #1

    Default MP4 file recognized as audio , but it is video file !

    Hello.
    I need some help here .
    Really weird issue (
    My mp4 4k movie file is recognized as an audio file , that is why it is not in video category and i
    cant watch it on tv .
    How can i change a category for this mp4 file to video?

    Thanks.
    Attached Images Attached Images

  2. #2
    Join Date
    Sep 2009
    Posts
    2,062

    Default

    Can you please right-click on the file in Mezzmo and select 'Get FFmpeg Information...' then copy and paste the contents into a post here so we can see the properties of the file?

    Mezzmo Android: Install it on your tablet, smartphone, Android TV or Amazon Fire to browse and stream files from your Mezzmo library to all your devices. Full details at http://www.conceiva.com/products/mez...mo_android.asp
    Mezzmo for Kodi Add-on: Install it into Kodi to stream files from your Mezzmo library directly in Kodi. Full details at http://www.mezzmo.com/wiki/doku.php?...odi_user_guide
    Mezzmo for Roku App: Install it onto your Roku to stream files from your Mezzmo library. Full details at http://www.mezzmo.com/wiki/doku.php?...oku_user_guide
    Wiki: User Guides & Reference Manual at http://www.mezzmo.com/wiki
    Facebook: http://www.facebook.com/Mezzmo.DLNA.Server
    Twitter: https://twitter.com/conceiva_mezzmo
    Web: http://www.mezzmo.com

  3. #3

    Default

    By the way , the file is perfectly fine seen on tv via netger router dlna.

    ffmpeg version N-78742-gf477849 Copyright (c) 2000-2017 the FFmpeg developers
    built with gcc 4.9.2 (GCC)
    configuration: --arch=x86_64 --target-os=mingw32 --cross-prefix=x86_64-w64-mingw32- --enable-static --disable-shared --enable-zlib --disable-postproc --prefix=/home/peter/ffmpeg/build/gpl64 --enable-libmp3lame --enable-libx264 --enable-gpl --extra-libs='-lx264 -lpthread -lstdc++' --enable-runtime-cpudetect --extra-cflags=-I/home/peter/cc32/include --extra-ldflags=-L/home/peter/cc64/lib --pkg-config=pkg-config --pkg-config-flags=--static --disable-w32threads --enable-libvpx --enable-libvorbis --enable-libtheora --enable-libx265 --enable-cuda --enable-cuvid --enable-dxva2 --enable-libmfx --enable-nvenc --enable-gnutls --extra-libs='-lz -lnettle -lhogweed -lgmp -lidn -lws2_32 -lcrypt32'
    libavutil 55. 74.100 / 55. 74.100
    libavcodec 57.103.100 / 57.103.100
    libavformat 57. 76.100 / 57. 76.100
    libavdevice 57. 7.100 / 57. 7.100
    libavfilter 6.100.100 / 6.100.100
    libswscale 4. 7.102 / 4. 7.102
    libswresample 2. 8.100 / 2. 8.100
    [mov,mp4,m4a,3gp,3g2,mj2 @ 0000000000026c80] Could not find codec parameters for stream 0 (Video: none (dvhe / 0x65687664), none, 3840x2160, 41401 kb/s): unknown codec
    Consider increasing the value for the 'analyzeduration' and 'probesize' options
    Input #0, mov,mp4,m4a,3gp,3g2,mj2, from 'D:\HD CONTENT\HD MOVIES\Алита Боевой ангел Alita Battle Angel (2019)\Alita.Battle.Angel.2019.UHD.BDRemux.2160p.H EVC.DV.TV.IVA(RUS.UKR.ENG).ExKinoRay.mp4':
    Metadata:
    major_brand : mp42
    minor_version : 0
    compatible_brands: mp42isomdby1
    creation_time : 2019-08-01T13:19:30.000000Z
    title : Alita.Battle.Angel.2019.UHD.BDRemux.2160p.HEVC.DV. TV.IVA(RUS.UKR.ENG).ExKinoRay
    artist :
    album :
    comment :
    encoder : IVA.ExKinoRay
    Duration: 02:01:57.31, start: 0.000000, bitrate: 44093 kb/s
    Stream #0:0(und): Video: none (dvhe / 0x65687664), none, 3840x2160, 41401 kb/s, 23.98 fps, 23.98 tbr, 24k tbn, 24k tbc (default)
    Metadata:
    creation_time : 2019-08-01T13:19:30.000000Z
    encoder : DOVI Coding
    Stream #0:1(rus): Audio: dts (DTS) (dtsc / 0x63737464), 48000 Hz, 5.1(side), fltp, 768 kb/s (default)
    Metadata:
    creation_time : 2019-08-01T13:19:30.000000Z
    Stream #0:2(rus): Audio: ac3 (ac-3 / 0x332D6361), 48000 Hz, 5.1(side), fltp, 448 kb/s
    Metadata:
    creation_time : 2019-08-01T13:19:30.000000Z
    Side data:
    audio service type: main
    Stream #0:3(rus): Audio: ac3 (ac-3 / 0x332D6361), 48000 Hz, stereo, fltp, 192 kb/s
    Metadata:
    creation_time : 2019-08-01T13:19:30.000000Z
    Side data:
    audio service type: main
    Stream #0:4(rus): Audio: ac3 (ac-3 / 0x332D6361), 48000 Hz, stereo, fltp, 192 kb/s
    Metadata:
    creation_time : 2019-08-01T13:19:30.000000Z
    Side data:
    audio service type: main
    Stream #0:5(ukr): Audio: ac3 (ac-3 / 0x332D6361), 48000 Hz, 5.1(side), fltp, 448 kb/s
    Metadata:
    creation_time : 2019-08-01T13:19:30.000000Z
    Side data:
    audio service type: main
    Stream #0:6(eng): Audio: ac3 (ac-3 / 0x332D6361), 48000 Hz, 5.1(side), fltp, 640 kb/s
    Metadata:
    creation_time : 2019-08-01T13:19:30.000000Z
    Side data:
    audio service type: main
    At least one output file must be specified

    <MEZZMO>: Child process ended with code: 109, ExitCode=1


    ---> DB Level Info: -99, -99
    ---> Frame rate: 23,98
    ---> Aspect ratio:
    ---> Duration: 02:01:57

  4. #4
    Join Date
    Sep 2009
    Posts
    2,062

    Default

    The video codec dvhe appears to be not recognized by ffmpeg as video. It is listed as none instead of video so this is why Mezzmo does not detect the file as a video. You may need to re-encode it to another video format to get Mezzmo to recognize it as a video file.

    Mezzmo Android: Install it on your tablet, smartphone, Android TV or Amazon Fire to browse and stream files from your Mezzmo library to all your devices. Full details at http://www.conceiva.com/products/mez...mo_android.asp
    Mezzmo for Kodi Add-on: Install it into Kodi to stream files from your Mezzmo library directly in Kodi. Full details at http://www.mezzmo.com/wiki/doku.php?...odi_user_guide
    Mezzmo for Roku App: Install it onto your Roku to stream files from your Mezzmo library. Full details at http://www.mezzmo.com/wiki/doku.php?...oku_user_guide
    Wiki: User Guides & Reference Manual at http://www.mezzmo.com/wiki
    Facebook: http://www.facebook.com/Mezzmo.DLNA.Server
    Twitter: https://twitter.com/conceiva_mezzmo
    Web: http://www.mezzmo.com

  5. #5

    Default

    Ok , but i think it will be better if you solve this issue in future update .
    As it is recognized as video even by very simple built-in DLNA on Netger router .
    Or at least provide an option to change the category from music to video.

    Thanks.

Similar Threads

  1. Mezzmo Stops Playing Video File and Skips to Next File
    By ressorp923 in forum Mezzmo Questions and Support
    Replies: 1
    Last Post: 10-20-2013, 06:26 PM
  2. Stream a MKV file using a external .dts file audio track
    By ronin in forum Mezzmo Questions and Support
    Replies: 1
    Last Post: 05-21-2012, 11:03 AM
  3. Updating a video file in the library does not update video properties
    By ysbinns in forum Mezzmo Questions and Support
    Replies: 1
    Last Post: 09-12-2011, 09:01 AM
  4. Is there a way to select which audio stream is sent in a Video file.
    By itsmydamnation in forum Mezzmo Questions and Support
    Replies: 2
    Last Post: 12-31-2010, 10:36 AM
  5. Play video file but lost audio after 30 sec
    By dtarin in forum Mezzmo Questions and Support
    Replies: 1
    Last Post: 09-27-2010, 09:09 AM

Tags for this Thread

Bookmarks

Posting Permissions

  • You may not post new threads
  • You may not post replies
  • You may not post attachments
  • You may not edit your posts
  •