Results 1 to 6 of 6

Thread: LG 42LV5500 and Mezzmo

  1. #1
    Join Date
    Jul 2011
    Posts
    23

    Default LG 42LV5500 and Mezzmo

    Hello,

    First, please forgive me my poor English. I'm (un)happy owner LCDTV LG 42LV5500. I wonder if Mezzmo supports this quite fresh TV LED model. I'm asking because I tried to connect TV to Mezzmo using permanent LAN (Ethernet cable), unfortunately without success (I tried many profiles, results the same). Problem is that TV can't find Mezzmo server, although Blu-Ray player LG BD390 see it and attach without any (serious) problems (I don't use firewall internally, uPNP is disabled etc.). The worst thing is that when I turned on debugging there is no network traffic between Mezzmo server and TV-set...
    It seems to me that either Mezzmo doesn't support this TV model, or LG TV can only attach to Nero Media Home (included to almost every LG DLNA-aware device). Anyway I asked mentioned questions to polish LG Customer Service also. I will inform you about their response.

    Best Regards
    Mariusz

  2. #2
    Join Date
    Nov 2007
    Location
    Melbourne, Australia
    Posts
    11,646

    Default

    Hello Mariusz,

    Mezzmo should work with that TV. Is it on the same network/router as the LG BluRay?

    If it's on a different network, then can you please check if any of the items in this thread apply to you: http://forum.conceiva.com/showthread...ur-DLNA-device ?

    Also, can you please confirm that you can see Nero's MH on the TV running on the same PC as Mezzmo? Or that doesn't come up either?

    Mezzmo Android: Install it on your tablet, smartphone, Android TV or Amazon Fire to browse and stream files from your Mezzmo library to all your devices. Full details at http://www.conceiva.com/products/mez...mo_android.asp
    Mezzmo for Kodi Add-on: Install it into Kodi to stream files from your Mezzmo library directly in Kodi. Full details at http://www.mezzmo.com/wiki/doku.php?...odi_user_guide
    Mezzmo for Roku App: Install it onto your Roku to stream files from your Mezzmo library. Full details at http://www.mezzmo.com/wiki/doku.php?...oku_user_guide
    Wiki: User Guides & Reference Manual at http://www.mezzmo.com/wiki
    Facebook: http://www.facebook.com/Mezzmo.DLNA.Server
    Twitter: https://twitter.com/conceiva_mezzmo
    Web: http://www.mezzmo.com

  3. #3
    Join Date
    Jul 2011
    Posts
    23

    Default

    Hello Dennis,

    Thank you for your suggestions. TV set and PC with Mezzmo installed are both located in the same wired net (192.168.4.50 - TV, 192.168.4.3 - PC). I already checked all things mentioned in thread below. Unfortunately no issues relate to my case. BUT accidentally I discovered that if I "refresh" IP configuration in TV (I mean: go to "Network Menu" and do the cycle "IP assigned manually" -> "IP assigned by DHCP" -> "IP assigned manually") EVERY DLNA server is detected without any problem ! I don't need to change any field on "Network Menu", just click on two arrows... It looks like firmware bug or something like this. I informed LG Customer Service about this issue, they suggested restore to factory defaults. As we expected this didn't help so second support request has been sent... In the meantime I decided to test recent 2.4.0 version with hope that maybe something will be fixed. I discovered that playing MKVs is not smooth, even using "LG TV" profile (initially my LG 42LV5500 is automatically recognized as... "LG BluRay (LPCM)"). In version 2.3.2 playing was perfect. Below FFmpeg information for movie which is good example:

    <=== 2.4.0 - begin ===>
    ffmpeg version N-31558-g47b71ee, Copyright (c) 2000-2011 the FFmpeg developers
    built on Jul 19 2011 11:59:21 with gcc 4.4.2
    configuration: --enable-memalign-hack --arch=x86 --target-os=mingw32 --cross-

    prefix=i686-mingw32- --enable-static --disable-shared --enable-zlib --disable-ffplay --

    prefix=/media/windows/ffmpeg --enable-libmp3lame --enable-libx264 --enable-gpl --extra-

    libs='-lx264 -lpthread' --enable-runtime-cpudetect --pkg-config=pkg-config
    libavutil 51. 11. 0 / 51. 11. 0
    libavcodec 53. 8. 0 / 53. 8. 0
    libavformat 53. 6. 0 / 53. 6. 0
    libavdevice 53. 2. 0 / 53. 2. 0
    libavfilter 2. 27. 0 / 2. 27. 0
    libswscale 2. 0. 0 / 2. 0. 0
    libpostproc 51. 2. 0 / 51. 2. 0
    [matroska,webm @ 01b3b140] Estimating duration from bitrate, this may be inaccurate
    Input #0, matroska,webm, from 'D:\Movies\Evangelion 2.22 You Can (Not) Advance (1080p)

    \[UTW-THORA] Evangelion 2.22 - You Can (Not) Advance [BD][1080p,x264,DTS-ES]

    [8B521921].mkv':
    Metadata:
    title : Evangelion 2.22: You Can (Not) Advance
    Duration: 01:52:09.51, start: 0.000000, bitrate: 1536 kb/s
    Stream #0.0(eng): Video: h264 (High), yuv420p, 1920x1080 [PAR 1:1 DAR 16:9], 23.98

    fps, 23.98 tbr, 1k tbn, 47.95 tbc
    Stream #0.1(jpn): Audio: dca (DTS-ES), 48000 Hz, 7 channels (FL|FR|FC|LFE|BC|SL|SR),

    s16, 1536 kb/s (default)
    Stream #0.2(eng): Subtitle: ass (default)
    Stream #0.3: Attachment: [0][0][0][0] / 0x0000
    Metadata:
    filename : FGCCARAB_Trimmed.TTF
    Stream #0.4: Attachment: [0][0][0][0] / 0x0000
    Metadata:
    filename : Francis.ttf
    Stream #0.5: Attachment: [0][0][0][0] / 0x0000
    Metadata:
    filename : LIDSTFCE.TTF
    Stream #0.6: Attachment: [0][0][0][0] / 0x0000
    Metadata:
    filename : Post_Note.ttf
    Stream #0.7: Attachment: [0][0][0][0] / 0x0000
    Metadata:
    filename : PPETRIAL.otf
    Stream #0.8: Attachment: [0][0][0][0] / 0x0000
    Metadata:
    filename : SOUTANB.TTF
    Stream #0.9: Attachment: [0][0][0][0] / 0x0000
    Metadata:
    filename : SOUTANBI.TTF
    Stream #0.10: Attachment: [0][0][0][0] / 0x0000
    Metadata:
    filename : 9SALERNO.TTF
    Stream #0.11: Attachment: [0][0][0][0] / 0x0000
    Metadata:
    filename : 23.ttf
    Stream #0.12: Attachment: [0][0][0][0] / 0x0000
    Metadata:
    filename : ArnoPro-Regular.otf
    Stream #0.13: Attachment: [0][0][0][0] / 0x0000
    Metadata:
    filename : Bethhrg_.ttf
    Stream #0.14: Attachment: [0][0][0][0] / 0x0000
    Metadata:
    filename : fansubBlock.ttf
    At least one output file must be specified


    ---> DB Level Info: 41, 100
    ---> Frame rate: 23,98
    ---> Aspect ratio: 16:9
    <=== 2.4.0 - end ===>

    <=== 2.3.2 - begin ===>
    ffmpeg version git-N-30186-gd9d5603, Copyright (c) 2000-2011 the FFmpeg developers
    built on May 25 2011 12:16:07 with gcc 4.4.2
    configuration: --enable-memalign-hack --arch=x86 --target-os=mingw32 --cross-prefix=i686-mingw32- --enable-static --disable-shared --

    enable-zlib --disable-ffprobe --disable-ffplay --prefix=/media/windows/ffmpeg --enable-libmp3lame --enable-libx264 --enable-gpl --extra-

    libs='-lx264 -lpthread' --enable-runtime-cpudetect --pkg-config=pkg-config
    libavutil 51. 2. 1 / 51. 2. 1
    libavcodec 53. 6. 0 / 53. 6. 0
    libavformat 53. 2. 0 / 53. 2. 0
    libavdevice 53. 0. 0 / 53. 0. 0
    libavfilter 2. 10. 0 / 2. 10. 0
    libswscale 0. 14. 0 / 0. 14. 0
    libpostproc 51. 2. 0 / 51. 2. 0
    [matroska,webm @ 01b15560] Estimating duration from bitrate, this may be inaccurate
    Input #0, matroska,webm, from 'E:\Movies\Evangelion 2.22 (PL)\You Can (Not) Advance (BD).mkv':
    Metadata:
    title : Evangelion 2.22: You Can (Not) Advance
    Duration: 01:52:09.51, start: 0.000000, bitrate: 1536 kb/s
    Stream #0.0(eng): Video: h264 (High), yuv420p, 1920x1080 [PAR 1:1 DAR 16:9], 23.98 fps, 23.98 tbr, 1k tbn, 47.95 tbc
    Stream #0.1(jpn): Audio: dca (DTS-ES), 48000 Hz, 7 channels (FL|FR|FC|LFE|BC|SL|SR), s16, 1536 kb/s (default)
    Stream #0.2(eng): Subtitle: ass (default)
    Stream #0.3: Attachment: [0][0][0][0] / 0x0000
    Metadata:
    filename : FGCCARAB_Trimmed.TTF
    Stream #0.4: Attachment: [0][0][0][0] / 0x0000
    Metadata:
    filename : Francis.ttf
    Stream #0.5: Attachment: [0][0][0][0] / 0x0000
    Metadata:
    filename : LIDSTFCE.TTF
    Stream #0.6: Attachment: [0][0][0][0] / 0x0000
    Metadata:
    filename : Post_Note.ttf
    Stream #0.7: Attachment: [0][0][0][0] / 0x0000
    Metadata:
    filename : PPETRIAL.otf
    Stream #0.8: Attachment: [0][0][0][0] / 0x0000
    Metadata:
    filename : SOUTANB.TTF
    Stream #0.9: Attachment: [0][0][0][0] / 0x0000
    Metadata:
    filename : SOUTANBI.TTF
    Stream #0.10: Attachment: [0][0][0][0] / 0x0000
    Metadata:
    filename : 9SALERNO.TTF
    Stream #0.11: Attachment: [0][0][0][0] / 0x0000
    Metadata:
    filename : 23.ttf
    Stream #0.12: Attachment: [0][0][0][0] / 0x0000
    Metadata:
    filename : ArnoPro-Regular.otf
    Stream #0.13: Attachment: [0][0][0][0] / 0x0000
    Metadata:
    filename : Bethhrg_.ttf
    Stream #0.14: Attachment: [0][0][0][0] / 0x0000
    Metadata:
    filename : fansubBlock.ttf
    At least one output file must be specified


    ---> DB Level Info: 41
    <=== 2.3.2 - end ===>

    Sorry for long story...

    Best Regards,
    Mariusz

  4. #4
    Join Date
    Nov 2007
    Location
    Melbourne, Australia
    Posts
    11,646

    Default

    Hello Mariusz,

    We have an updated device profile for the LG TV, so can you please send a message to support (at) conceiva (dot) com and we'll send it to you to try.

    Mezzmo Android: Install it on your tablet, smartphone, Android TV or Amazon Fire to browse and stream files from your Mezzmo library to all your devices. Full details at http://www.conceiva.com/products/mez...mo_android.asp
    Mezzmo for Kodi Add-on: Install it into Kodi to stream files from your Mezzmo library directly in Kodi. Full details at http://www.mezzmo.com/wiki/doku.php?...odi_user_guide
    Mezzmo for Roku App: Install it onto your Roku to stream files from your Mezzmo library. Full details at http://www.mezzmo.com/wiki/doku.php?...oku_user_guide
    Wiki: User Guides & Reference Manual at http://www.mezzmo.com/wiki
    Facebook: http://www.facebook.com/Mezzmo.DLNA.Server
    Twitter: https://twitter.com/conceiva_mezzmo
    Web: http://www.mezzmo.com

  5. #5
    Join Date
    Jul 2011
    Posts
    23

    Default

    Hello Dennis,

    Thank you for your quick reply. New "LG TV" profile has been tested already. Below results:

    1. TV still recognized as "LG BluRay (LPCM)" - for further tests manually set as "LG TV" device

    2. Video - no 2-secs breaks required for transcoding - performance as in version 2.3.2 - PERFECT !

    3. Audio - DTS track transcoded - no problems, performance as in version 2.3.2 - PERFECT !

    Logs extracted to investigate detection issues (already sent). Thank you for any support.

    Best Regards,
    Mariusz

  6. #6
    Join Date
    Nov 2007
    Location
    Melbourne, Australia
    Posts
    11,646

    Default

    Hello Mariusz,

    Thanks for the logs and testing!

    Mezzmo Android: Install it on your tablet, smartphone, Android TV or Amazon Fire to browse and stream files from your Mezzmo library to all your devices. Full details at http://www.conceiva.com/products/mez...mo_android.asp
    Mezzmo for Kodi Add-on: Install it into Kodi to stream files from your Mezzmo library directly in Kodi. Full details at http://www.mezzmo.com/wiki/doku.php?...odi_user_guide
    Mezzmo for Roku App: Install it onto your Roku to stream files from your Mezzmo library. Full details at http://www.mezzmo.com/wiki/doku.php?...oku_user_guide
    Wiki: User Guides & Reference Manual at http://www.mezzmo.com/wiki
    Facebook: http://www.facebook.com/Mezzmo.DLNA.Server
    Twitter: https://twitter.com/conceiva_mezzmo
    Web: http://www.mezzmo.com

Tags for this Thread

Bookmarks

Posting Permissions

  • You may not post new threads
  • You may not post replies
  • You may not post attachments
  • You may not edit your posts
  •