Results 1 to 2 of 2

Thread: Mp4 chokes randomly

  1. #1
    Join Date
    Nov 2011
    Posts
    2

    Unhappy Mp4 chokes randomly

    Hello there,

    First let me congratulate Conceiva for the great software provided!!
    Unfortunately I've had some problems playing MP4 files: the video stops randomly while playing. It may last 5 mins or 40 minutes, but doesn't seem able to play the full movie. Also, the forward or the chaptering doesn't exist, so i cant overcome the problem by fastforwarding to the point it was when it crashed...

    I'm using a Samsung 37c650, with the samsung C profile. Also i've tried to alter the SamsungLA profile as stated in some other post (http://forum.conceiva.com/showthread...msung-LE40C650) but the problem remains.

    As for the media info:

    ffmpeg version N-33781-g35674a2, Copyright (c) 2000-2011 the FFmpeg developers
    built on Oct 19 2011 10:31:16 with gcc 4.6.1
    configuration: --enable-memalign-hack --arch=x86 --target-os=mingw32 --cross-prefix=i686-w64-mingw32- --enable-static --disable-shared --enable-zlib --disable-postproc --prefix=/media/ffmpeg --enable-libmp3lame --enable-libx264 --enable-gpl --extra-libs='-lx264 -lpthread' --enable-runtime-cpudetect --extra-cflags=-I/home/dennis/cc/include --extra-ldflags=-L/home/dennis/cc/lib --pkg-config=pkg-config
    libavutil 51. 22. 0 / 51. 22. 0
    libavcodec 53. 21. 0 / 53. 21. 0
    libavformat 53. 16. 1 / 53. 16. 1
    libavdevice 53. 4. 0 / 53. 4. 0
    libavfilter 2. 44. 0 / 2. 44. 0
    libswscale 2. 1. 0 / 2. 1. 0
    Input #0, mov,mp4,m4a,3gp,3g2,mj2, from 'D:\Movies\super8\Super.8.2011.720p.BRRip.x264.AAC-ViSiON\Super.8.2011.720p.BRRip.x264.AAC-ViSiON.mp4':
    Metadata:
    major_brand : isom
    minor_version : 1
    compatible_brands: isom
    creation_time : 2011-10-22 19:33:05
    Duration: 01:51:48.80, start: 0.000000, bitrate: 2492 kb/s
    Stream #0:0(und): Video: h264 (High) (avc1 / 0x31637661), yuv420p, 1280x534 [SAR 1:1 DAR 640:267], 2049 kb/s, 23.98 fps, 23.98 tbr, 10000k tbn, 47.95 tbc
    Metadata:
    creation_time : 2011-10-22 13:36:48
    Stream #0:1(und): Audio: aac (mp4a / 0x6134706D), 48000 Hz, 5.1, s16, 439 kb/s
    Metadata:
    creation_time : 2011-10-22 19:35:13
    At least one output file must be specified


    ---> DB Level Info: 51, 100
    ---> Frame rate: 23,98
    ---> Aspect ratio: 640:267


    Can you help me on this one, please?

    TIA

  2. #2
    Join Date
    Nov 2007
    Location
    Melbourne, Australia
    Posts
    11,641

    Default

    That file will be transcoded using the "Samsung C" device profile, so it may be stopping because of that. To check what's wrong, please enable logging (see this thread: http://forum.conceiva.com/showthread...nostic-logging) then delete your transcoded files and try playing this file again. Once it stops, stop the server and send the logs to support.

    Also, please try the "Samsung BDP" device profile and see if the files plays - that profile will pass it through natively, so if your TV's firmware supports it, then it'd be better for you to use the "BDP" device profile instead.

    Mezzmo Android: Install it on your tablet, smartphone, Android TV or Amazon Fire to browse and stream files from your Mezzmo library to all your devices. Full details at http://www.conceiva.com/products/mez...mo_android.asp
    Mezzmo for Kodi Add-on: Install it into Kodi to stream files from your Mezzmo library directly in Kodi. Full details at http://www.mezzmo.com/wiki/doku.php?...odi_user_guide
    Mezzmo for Roku App: Install it onto your Roku to stream files from your Mezzmo library. Full details at http://www.mezzmo.com/wiki/doku.php?...oku_user_guide
    Wiki: User Guides & Reference Manual at http://www.mezzmo.com/wiki
    Facebook: http://www.facebook.com/Mezzmo.DLNA.Server
    Twitter: https://twitter.com/conceiva_mezzmo
    Web: http://www.mezzmo.com

Similar Threads

  1. Randomly Play Photos on a PS3
    By tedk in forum Mezzmo Questions and Support
    Replies: 2
    Last Post: 03-28-2013, 06:00 PM
  2. Randomly playing video files in a folder (Usefull for music video files)
    By Jike in forum Mezzmo Wish List and Feedback
    Replies: 7
    Last Post: 12-28-2011, 04:04 PM
  3. Samsung C580 - Video randomly stops playing..
    By Urza in forum Mezzmo Questions and Support
    Replies: 3
    Last Post: 07-11-2011, 04:00 PM
  4. 2.1.10.0 - Randomly missing play/pause function
    By wozza in forum Mezzmo Questions and Support
    Replies: 10
    Last Post: 10-13-2010, 12:52 PM
  5. Randomly choppy playback/freezes every 4-5 seconds
    By Manny in forum Mezzmo Questions and Support
    Replies: 2
    Last Post: 08-18-2010, 09:43 AM

Tags for this Thread

Bookmarks

Posting Permissions

  • You may not post new threads
  • You may not post replies
  • You may not post attachments
  • You may not edit your posts
  •